Начать новую тему Ответить на тему
Статистика раздачи
Размер: 269.6 МБ | Добавлен: 26 июн 2020, 17:08 | Скачали: 0
Сидеров: 0  [0 байт/сек]    Личеров: 0  [0 байт/сек]
Пред. тема | След. тема 

Автор
Сообщение

СообщениеДобавлено: 26 июн 2020, 17:08 

Ответить с цитатой 

Cylab - Unparallel Universe
Жанр: Electronic, Industrial, Trip Hop
Носитель: CD
Страна-производитель диска: USA
Год издания: 2004
Издатель (лейбл): A.D.S.R. Musicwerks
Номер по каталогу: ADSR:046
Страна исполнителя (группы): USA
Аудиокодек: FLAC (*.flac)
Тип рипа: image+.cue
Битрейт аудио: lossless
Продолжительность: 00:38:26
Источник (релизер): soulseek
Наличие сканов в содержимом раздачи: да
Треклист:
01. Zero & 1 (04:38)
02. Musicbox (04:51)
03. Motionfix (04:57)
04. Maze (05:03)
05. Greys (04:56)
06. Unparallel Universe (04:38)
07. C21d18no3 (05:32)
08. Maze (Christ Analogue Remix) (03:48)
Код:
Exact Audio Copy V1.0 beta 3 from 29. August 2011
Отчёт EAC об извлечении, выполненном 1. мая 2012, 12:34
Cylab / Unparallel Universe
Дисковод: PIONEER DVD-RW  DVR-XD10   Adapter: 3  ID: 0
Режим чтения                 : Достоверность
Использование точного потока : Да
Отключение кэша аудио        : Да
Использование указателей C2  : Нет
Коррекция смещения при чтении                     : 96
Способность читать области Lead-in и Lead-out     : Нет
Заполнение пропущенных сэмплов тишиной            : Да
Удаление блоков с тишиной в начале и конце        : Нет
При вычислениях CRC использовались нулевые сэмплы : Да
Интерфейс                                         : Встроенный Win32-интерфейс для Win NT/2000
Выходной формат          : Пользовательский кодировщик
Выбранный битрейт        : 1024 kBit/s
Качество                 : Высокий
Добавление ID3-тега      : Нет
Утилита сжатия           : C:\Program Files\Exact Audio Copy\FLAC\FLAC.EXE
Дополнительные параметры : -6 -V -T "Date=%year%" -T "Genre=%genre%" %source%
TOC извлечённого CD
     Трек |   Старт  | Длительность | Начальный сектор | Конечный сектор
    ---------------------------------------------------------------------
       1  |  0:00.00 |    4:38.14   |           0      |      20863
       2  |  4:38.14 |    4:51.27   |       20864      |      42715
       3  |  9:29.41 |    4:57.62   |       42716      |      65052
       4  | 14:27.28 |    5:03.32   |       65053      |      87809
       5  | 19:30.60 |    4:56.42   |       87810      |     110051
       6  | 24:27.27 |    4:38.03   |      110052      |     130904
       7  | 29:05.30 |    5:32.08   |      130905      |     155812
       8  | 34:37.38 |    3:48.50   |      155813      |     172962
Характеристики диапазона извлечения и сообщения об ошибках
Выбранный диапазон
     Имя файла C:\Documents and Settings\Наташка\Рабочий стол\Cylab - Unparallel Universe.wav
     Пиковый уровень 100.0 %
     Скорость извлечения 3.5 X
     Качество диапазона 100.0 %
     CRC теста 67FB95D8
     CRC копии 67FB95D8
     Копирование... OK
Ошибок не произошло
AccurateRip: сводка
Трек  1  отсутствует в базе данных
Трек  2  отсутствует в базе данных
Трек  3  точность не определена (достоверность 1)  [D8BF3CC1], AccurateRip вернул [C592E76F]  (AR v2)
Трек  4  отсутствует в базе данных
Трек  5  отсутствует в базе данных
Трек  6  отсутствует в базе данных
Трек  7  отсутствует в базе данных
Трек  8  отсутствует в базе данных
 1 трек(и) не удалось проверить на точность
 7 трек(и) не содержатся в базе AccurateRip
Ни один трек не прошёл проверки на точность
В вашей базе может быть иной вариант штамповки диска
Конец отчёта
==== Контрольная сумма отчёта 8C504A8F4CF369CCC8F600FC32E08A3BD4677306EE3345E0CA8695CD8F87A449 ====
Код:
REM GENRE "electro industrial"
REM DATE 2004
REM DISCID 74090208
REM COMMENT "ExactAudioCopy v1.0b3"
PERFORMER "Cylab"
TITLE "Unparallel Universe"
FILE "Cylab - Unparallel Universe.flac" WAVE
  TRACK 01 AUDIO
    TITLE "Zero & 1"
    PERFORMER "Cylab"
    INDEX 01 00:00:00
  TRACK 02 AUDIO
    TITLE "Musicbox"
    PERFORMER "Cylab"
    INDEX 00 04:37:12
    INDEX 01 04:38:14
  TRACK 03 AUDIO
    TITLE "Motionfix"
    PERFORMER "Cylab"
    INDEX 00 09:27:38
    INDEX 01 09:29:41
  TRACK 04 AUDIO
    TITLE "Maze"
    PERFORMER "Cylab"
    INDEX 00 14:25:25
    INDEX 01 14:27:28
  TRACK 05 AUDIO
    TITLE "Greys"
    PERFORMER "Cylab"
    INDEX 00 19:28:57
    INDEX 01 19:30:60
  TRACK 06 AUDIO
    TITLE "Unparallel Universe"
    PERFORMER "Cylab"
    INDEX 00 24:25:24
    INDEX 01 24:27:27
  TRACK 07 AUDIO
    TITLE "c21d18no3"
    PERFORMER "Cylab"
    INDEX 01 29:05:30
  TRACK 08 AUDIO
    TITLE "Maze (Christ Analogue remix)"
    PERFORMER "Cylab"
    INDEX 00 34:35:35
    INDEX 01 34:37:38
Код:
-----------------------
DON'T MODIFY THIS FILE
-----------------------
PERFORMER: auCDtect Task Manager, ver. 1.5.1RC6 build 1.5.1.7
Copyright (c) 2008-2010 y-soft. All rights reserved
[url=http://y-soft.org]http://y-soft.org[/url]
ANALYZER: auCDtect: CD records authenticity detector, version 0.8.2
Copyright (c) 2004 Oleg Berngardt. All rights reserved.
Copyright (c) 2004 Alexander Djourik. All rights reserved.
FILE: Cylab - Unparallel Universe.flac
  Size: 248566036 Hash: FFEDD95A6890AA593AC7674DBFCBC754 Accuracy: -m0
  Conclusion: CDDA 100%
  Signature: 9A75D6A52AE388BB8598B7ACCA9DED9CA6BE9AEA
Правила, инструкции, FAQ!!!
Торрент  Добавлен [26 июн 2020, 17:08] Скачать торрент Магнет ссылка
Скачать торрент
[ Размер 11.53 КБ / Просмотров 6 ]

Статус
Проверен 
 
Размер  269.6 МБ
Приватный: Нет (DHT включён)
.torrent скачан  0
 


     Отправить личное сообщение
   
Страница 1 из 1
Показать сообщения за:  Поле сортировки  
Начать новую тему Ответить на тему


Сейчас этот форум просматривают: нет зарегистрированных пользователей и гости: 0


Вы не можете начинать темы
Вы не можете отвечать на сообщения
Вы не можете редактировать свои сообщения
Вы не можете удалять свои сообщения
Вы не можете добавлять вложения

Перейти:  
cron