Начать новую тему Ответить на тему
Статистика раздачи
Размер: 304.71 МБ | Добавлен: 26 июн 2020, 19:54 | Скачали: 0
Сидеров: 0  [0 байт/сек]    Личеров: 0  [0 байт/сек]
Пред. тема | След. тема 

Автор
Сообщение

СообщениеДобавлено: 26 июн 2020, 19:54 

Ответить с цитатой 

Liquid Divine / Sojourner EP
Жанр: Electronic / Industrial, EBM, Synth-pop
Страна-производитель диска: Germany
Год издания диска: 2011
Издатель (лейбл): Infacted Recordings
Номер по каталогу: FACT 3170
Формат: CD, EP, Limited Edition (500 copies)
Аудио кодек: FLAC (*.flac)
Тип рипа: image+.cue
Битрейт аудио: lossless
Продолжительность: 0:34:53.21
Источник (релизер): Физический носитель (Собственный рип с оригинального CD).
Наличие сканов в содержимом раздачи: да
Треклист:
01. Sojourner (Single Edit) [4:30]
02. Planet Zoo (Aqualite Remix) [5:41]
03. Sojourner (Diskonnekted Remix) [4:44]
04. Sojourner (Club Edit) [4:13]
05. Die To Meet You (Parasite Remix) [4:25]
06. Want (Dejan Samardzik Remix) [4:47]
07. Comagirl (Flaque Remix) [6:32]
Код:
Exact Audio Copy V1.0 beta 3 from 29. August 2011
EAC extraction logfile from 12. February 2012, 23:15
Liquid Divine / Sojourner EP
Used drive  : PLEXTOR BDDVDR PX-B320SA   Adapter: 0  ID: 2
Read mode               : Secure
Utilize accurate stream : Yes
Defeat audio cache      : Yes
Make use of C2 pointers : No
Read offset correction                      : 6
Overread into Lead-In and Lead-Out          : No
Fill up missing offset samples with silence : Yes
Delete leading and trailing silent blocks   : No
Null samples used in CRC calculations       : Yes
Used interface                              : Native Win32 interface for Win NT & 2000
Used output format              : User Defined Encoder
Selected bitrate                : 128 kBit/s
Quality                         : High
Add ID3 tag                     : No
Command line compressor         : C:\Program Files (x86)\FLAC\flac.exe
Additional command line options : -V -8 -T "Date=%year%" -T "Genre=%genre%" %source%
TOC of the extracted CD
     Track |   Start  |  Length  | Start sector | End sector
    ---------------------------------------------------------
        1  |  0:00.00 |  4:29.65 |         0    |    20239
        2  |  4:29.65 |  5:40.65 |     20240    |    45804
        3  | 10:10.55 |  4:44.00 |     45805    |    67104
        4  | 14:54.55 |  4:13.28 |     67105    |    86107
        5  | 19:08.08 |  4:25.37 |     86108    |   106019
        6  | 23:33.45 |  4:47.18 |    106020    |   127562
        7  | 28:20.63 |  6:32.28 |    127563    |   156990
Range status and errors
Selected range
     Filename D:\Liquid Divine - Sojourner EP (2011)\Liquid Divine - Sojourner EP.wav
     Peak level 99.0 %
     Extraction speed 3.2 X
     Range quality 100.0 %
     Test CRC 07F730B4
     Copy CRC 07F730B4
     Copy OK
No errors occurred
AccurateRip summary
Track  1  accurately ripped (confidence 1)  [46501158]  (AR v1)
Track  2  accurately ripped (confidence 1)  [3FFD8F42]  (AR v1)
Track  3  accurately ripped (confidence 1)  [E4E8415F]  (AR v1)
Track  4  accurately ripped (confidence 1)  [B33798DC]  (AR v1)
Track  5  accurately ripped (confidence 1)  [167321AF]  (AR v1)
Track  6  accurately ripped (confidence 1)  [39DD4D3B]  (AR v1)
Track  7  accurately ripped (confidence 1)  [BFD21777]  (AR v1)
All tracks accurately ripped
End of status report
==== Log checksum 1103AE1F14538E914290350571819C92D31584F5FD4ACFB2DA406944D7E996AF ====
Правила, инструкции, FAQ!!!
Торрент  Добавлен [26 июн 2020, 19:54] Скачать торрент Магнет ссылка
Скачать торрент
[ Размер 12.85 КБ / Просмотров 10 ]

Статус
Проверен 
 
Размер  304.71 МБ
Приватный: Нет (DHT включён)
.torrent скачан  0
 


     Отправить личное сообщение
   
Страница 1 из 1
Показать сообщения за:  Поле сортировки  
Начать новую тему Ответить на тему


Сейчас этот форум просматривают: нет зарегистрированных пользователей и гости: 0


Вы не можете начинать темы
Вы не можете отвечать на сообщения
Вы не можете редактировать свои сообщения
Вы не можете удалять свои сообщения
Вы не можете добавлять вложения

Перейти:  
cron