Начать новую тему Ответить на тему
Статистика раздачи
Размер: 302.2 МБ | Добавлен: 26 июн 2020, 17:01 | Скачали: 0
Сидеров: 0  [0 байт/сек]    Личеров: 0  [0 байт/сек]
Пред. тема | След. тема 

Автор
Сообщение

СообщениеДобавлено: 26 июн 2020, 17:01 

Ответить с цитатой 

Babyland - Who's Sorry Now?
Жанр: Electronic, Industrial
Страна-производитель диска: USA
Год издания диска: 1995
Издатель (лейбл): Mattress Recordings
Номер по каталогу: MAT005
Страна: USA
Аудио кодек: FLAC (*.flac)
Тип рипа: tracks+.cue
Битрейт аудио: lossless
Продолжительность: 46:41.840
Источник (релизер): What.CD
Наличие сканов в содержимом раздачи: нет
Треклист:
1 Lukewarm 3:21
2 A Slow News Day 3:11
3 Happy Drum 5:25
4 He Will Not Forgive 5:41
5 Form 95B 6:37
6 The Door Northern 5:38
7 We Don't Know 4:51
8 Cancer Beat 5:06
9 Begin Again 6:53
Код:
Exact Audio Copy V0.99 prebeta 4 from 23. January 2008
EAC extraction logfile from 21. September 2008, 16:10
Babyland / Who's Sorry Now?
Used drive  : TSSTcorpDVD+-RW TS-H653B   Adapter: 1  ID: 0
Read mode               : Secure
Utilize accurate stream : Yes
Defeat audio cache      : Yes
Make use of C2 pointers : No
Read offset correction                      : 6
Overread into Lead-In and Lead-Out          : No
Fill up missing offset samples with silence : Yes
Delete leading and trailing silent blocks   : No
Null samples used in CRC calculations       : Yes
Used interface                              : Installed external ASPI interface
Gap handling                                : Appended to previous track
Used output format              : User Defined Encoder
Selected bitrate                : 192 kBit/s
Quality                         : High
Add ID3 tag                     : No
Command line compressor         : C:\Program Files\Exact Audio Copy\Flac\flac.exe
Additional command line options : -V -8 -T "artist=%a" -T "title=%t" -T "album=%g" -T "date=%y" -T "tracknumber=%n" -T "genre=%m" %s
TOC of the extracted CD
     Track |   Start  |  Length  | Start sector | End sector
    ---------------------------------------------------------
        1  |  0:00.00 |  3:21.07 |         0    |    15081
        2  |  3:21.07 |  3:11.07 |     15082    |    29413
        3  |  6:32.14 |  5:25.07 |     29414    |    53795
        4  | 11:57.21 |  5:41.07 |     53796    |    79377
        5  | 17:38.28 |  6:37.07 |     79378    |   109159
        6  | 24:15.35 |  5:38.07 |    109160    |   134516
        7  | 29:53.42 |  4:51.07 |    134517    |   156348
        8  | 34:44.49 |  5:06.07 |    156349    |   179305
        9  | 39:50.56 |  6:51.07 |    179306    |   210137
       10  | 49:13.63 | 22:01.73 |    221538    |   320685
Track  1
     Filename C:\A\Babyland - Who's Sorry Now [flac]\01 - Lukewarm.wav
     Pre-gap length  0:00:02.00
     Peak level 98.8 %
     Track quality 100.0 %
     Test CRC 3EB17378
     Copy CRC 3EB17378
     Accurately ripped (confidence 6)  [B802D16D]
     Copy OK
Track  2
     Filename C:\A\Babyland - Who's Sorry Now [flac]\02 - A Slow News Day.wav
     Pre-gap length  0:00:01.98
     Peak level 99.1 %
     Track quality 100.0 %
     Test CRC 80F7C970
     Copy CRC 80F7C970
     Accurately ripped (confidence 6)  [AF5BC9D6]
     Copy OK
Track  3
     Filename C:\A\Babyland - Who's Sorry Now [flac]\03 - Happy Drum.wav
     Pre-gap length  0:00:01.97
     Peak level 98.8 %
     Track quality 99.9 %
     Test CRC 1014DB04
     Copy CRC 1014DB04
     Accurately ripped (confidence 6)  [51840B02]
     Copy OK
Track  4
     Filename C:\A\Babyland - Who's Sorry Now [flac]\04 - He Will Not Forgive.wav
     Pre-gap length  0:00:01.96
     Peak level 98.8 %
     Track quality 100.0 %
     Test CRC 83C39602
     Copy CRC 83C39602
     Accurately ripped (confidence 6)  [0FC3D998]
     Copy OK
Track  5
     Filename C:\A\Babyland - Who's Sorry Now [flac]\05 - Form 95B.wav
     Pre-gap length  0:00:01.97
     Peak level 98.9 %
     Track quality 100.0 %
     Test CRC F3B007F3
     Copy CRC F3B007F3
     Accurately ripped (confidence 6)  [6ED057DB]
     Copy OK
Track  6
     Filename C:\A\Babyland - Who's Sorry Now [flac]\06 - The Door Northern.wav
     Pre-gap length  0:00:01.98
     Peak level 99.2 %
     Track quality 100.0 %
     Test CRC 51D2A63E
     Copy CRC 51D2A63E
     Accurately ripped (confidence 6)  [83CB7C0D]
     Copy OK
Track  7
     Filename C:\A\Babyland - Who's Sorry Now [flac]\07 - We Don't Know.wav
     Pre-gap length  0:00:01.97
     Peak level 98.7 %
     Track quality 100.0 %
     Test CRC A816C075
     Copy CRC A816C075
     Accurately ripped (confidence 6)  [4B72FE33]
     Copy OK
Track  8
     Filename C:\A\Babyland - Who's Sorry Now [flac]\08 - Cancer Beat.wav
     Pre-gap length  0:00:01.98
     Peak level 98.8 %
     Track quality 100.0 %
     Test CRC F1179F11
     Copy CRC F1179F11
     Accurately ripped (confidence 6)  [55D640C8]
     Copy OK
Track  9
     Filename C:\A\Babyland - Who's Sorry Now [flac]\09 - Begin Again.wav
     Pre-gap length  0:00:01.97
     Peak level 99.0 %
     Track quality 99.9 %
     Test CRC E82BE56F
     Copy CRC E82BE56F
     Accurately ripped (confidence 6)  [8DB211EF]
     Copy OK
All tracks accurately ripped
No errors occurred
End of status report
Код:
REM GENRE Industrial
REM DATE 1995
REM DISCID 8B10B30A
REM COMMENT "ExactAudioCopy v0.99pb4"
PERFORMER "Babyland"
TITLE "Who's Sorry Now?"
FILE "01 - Lukewarm.wav" WAVE
  TRACK 01 AUDIO
    TITLE "Lukewarm"
    PERFORMER "Babyland"
    INDEX 01 00:00:00
  TRACK 02 AUDIO
    TITLE "A Slow News Day"
    PERFORMER "Babyland"
    INDEX 00 03:19:08
FILE "02 - A Slow News Day.wav" WAVE
    INDEX 01 00:00:00
  TRACK 03 AUDIO
    TITLE "Happy Drum"
    PERFORMER "Babyland"
    INDEX 00 03:09:09
FILE "03 - Happy Drum.wav" WAVE
    INDEX 01 00:00:00
  TRACK 04 AUDIO
    TITLE "He Will Not Forgive"
    PERFORMER "Babyland"
    INDEX 00 05:23:10
FILE "04 - He Will Not Forgive.wav" WAVE
    INDEX 01 00:00:00
  TRACK 05 AUDIO
    TITLE "Form 95B"
    PERFORMER "Babyland"
    INDEX 00 05:39:09
FILE "05 - Form 95B.wav" WAVE
    INDEX 01 00:00:00
  TRACK 06 AUDIO
    TITLE "The Door Northern"
    PERFORMER "Babyland"
    INDEX 00 06:35:08
FILE "06 - The Door Northern.wav" WAVE
    INDEX 01 00:00:00
  TRACK 07 AUDIO
    TITLE "We Don't Know"
    PERFORMER "Babyland"
    INDEX 00 05:36:09
FILE "07 - We Don't Know.wav" WAVE
    INDEX 01 00:00:00
  TRACK 08 AUDIO
    TITLE "Cancer Beat"
    PERFORMER "Babyland"
    INDEX 00 04:49:08
FILE "08 - Cancer Beat.wav" WAVE
    INDEX 01 00:00:00
  TRACK 09 AUDIO
    TITLE "Begin Again "
    PERFORMER "Babyland"
    INDEX 00 05:04:09
FILE "09 - Begin Again.wav" WAVE
    INDEX 01 00:00:00
  TRACK 10 MODEx/2xxx
    TITLE "CD-ROM Section"
    PERFORMER "Babyland"
    INDEX 00 06:51:07
BABYLAND embodies the integration of electronic music with the direct approach of hardcore and the intensity of junk noise. Compositions are conceptually based on the extreme emotional elements of humankind as reflected in our continual evolution and search for meaning within our own existence.
Throughout the years, elements of synth pop, hardcore punk rock, new wave, techno, drum & bass and noise have all fallen prey to our continual experimentation. We utilize machinery twisted through misuse and human error to aggressively address our audience with empathy and concern; The electronic elements and primitive rhythmic base of the music provides an intense clarity and opposition to the resulting confusion and noise. The stronghold of our existence has always been intense live performances which confront audiences with an honest celebration of extreme energy, harsh sonic and visual elements, and experimental destruction. In other words, we take ourselves way too seriously.
Внимание! Все выложенные здесь материалы предоставлены исключительно в целях ознакомления! После ознакомления с материалами Вы обязаны их удалить! Если Вы хотите пользоваться данным материалом в дальнейшем – Вы должны приобрести лицензионный диск.
Лучшая ваша благодарность за раздачу - отзывы об альбоме!
Правила, инструкции, FAQ!!!
Торрент  Добавлен [26 июн 2020, 17:01] Скачать торрент Магнет ссылка
Скачать торрент
[ Размер 12.88 КБ / Просмотров 3 ]

Статус
Проверен 
 
Размер  302.2 МБ
Приватный: Нет (DHT включён)
.torrent скачан  0
 


     Отправить личное сообщение
   
Страница 1 из 1
Показать сообщения за:  Поле сортировки  
Начать новую тему Ответить на тему


Сейчас этот форум просматривают: нет зарегистрированных пользователей и гости: 0


Вы не можете начинать темы
Вы не можете отвечать на сообщения
Вы не можете редактировать свои сообщения
Вы не можете удалять свои сообщения
Вы не можете добавлять вложения

Перейти:  
cron