Начать новую тему Ответить на тему
Статистика раздачи
Размер: 354.78 МБ | Добавлен: 26 июн 2020, 16:52 | Скачали: 0
Сидеров: 0  [0 байт/сек]    Личеров: 0  [0 байт/сек]
Пред. тема | След. тема 

Автор
Сообщение

СообщениеДобавлено: 26 июн 2020, 16:52 

Ответить с цитатой 

Babyland - The Finger
Жанр: Electronic, Industrial
Страна-производитель диска: USA
Год издания диска: 2004
Издатель (лейбл): Dependent Records
Номер по каталогу: mind 078
Страна: USA
Аудио кодек: FLAC (*.flac)
Тип рипа: tracks+.cue
Битрейт аудио: lossless
Продолжительность: 51:34.520
Источник (релизер): What.CD
Наличие сканов в содержимом раздачи: нет
Треклист:
1 Loss Leader 2:23
2 Defeated 5:21
3 Fast Space 2:52
4 Past Lives 3:31
5 Reno Machine 4:10
6 Guard Dogs 6:24
7 Nowadays 3:59
8 Cabrini Manor 3:50
9 Startled By The Obvious 5:14
10 Nativity 4:55
11 Gehry 4:28
12 LMYA 4:32
Код:
Exact Audio Copy V0.99 prebeta 5 from 4. May 2009
EAC extraction logfile from 6. October 2010, 23:12
Babyland / The Finger
Used drive  : MATSHITADVD-R   UJ-868   Adapter: 1  ID: 0
Read mode               : Secure
Utilize accurate stream : Yes
Defeat audio cache      : Yes
Make use of C2 pointers : No
Read offset correction                      : 102
Overread into Lead-In and Lead-Out          : No
Fill up missing offset samples with silence : Yes
Delete leading and trailing silent blocks   : No
Null samples used in CRC calculations       : Yes
Used interface                              : Native Win32 interface for Win NT & 2000
Gap handling                                : Appended to previous track
Used output format              : User Defined Encoder
Selected bitrate                : 128 kBit/s
Quality                         : High
Add ID3 tag                     : No
Command line compressor         : C:\Program Files\Exact Audio Copy\Flac\flac.exe
Additional command line options : -V -8 -T "artist=%a" -T "title=%t" -T "album=%g" -T "date=%y" -T "tracknumber=%n" -T "genre=%m" %s
TOC of the extracted CD
     Track |   Start  |  Length  | Start sector | End sector
    ---------------------------------------------------------
        1  |  0:00.00 |  2:23.71 |         0    |    10795
        2  |  2:23.71 |  5:21.14 |     10796    |    34884
        3  |  7:45.10 |  2:52.54 |     34885    |    47838
        4  | 10:37.64 |  3:31.43 |     47839    |    63706
        5  | 14:09.32 |  3:59.12 |     63707    |    81643
        6  | 18:08.44 |  6:24.62 |     81644    |   110505
        7  | 24:33.31 |  3:59.37 |    110506    |   128467
        8  | 28:32.68 |  3:50.28 |    128468    |   145745
        9  | 32:23.21 |  5:14.62 |    145746    |   169357
       10  | 37:38.08 |  4:55.17 |    169358    |   191499
       11  | 42:33.25 |  4:28.32 |    191500    |   211631
       12  | 47:01.57 |  4:32.57 |    211632    |   232088
Track  1
     Filename C:\Rips\Babyland\2004 - The Finger\01 - Babyland - Loss Leader.wav
     Pre-gap length  0:00:02.00
     Peak level 100.0 %
     Track quality 100.0 %
     Test CRC 9F0BF567
     Copy CRC 9F0BF567
     Accurately ripped (confidence 6)  [DB3D406E]
     Copy OK
Track  2
     Filename C:\Rips\Babyland\2004 - The Finger\02 - Babyland - Defeated.wav
     Peak level 100.0 %
     Track quality 100.0 %
     Test CRC 43D8021F
     Copy CRC 43D8021F
     Accurately ripped (confidence 6)  [009688A8]
     Copy OK
Track  3
     Filename C:\Rips\Babyland\2004 - The Finger\03 - Babyland - Fast Space.wav
     Peak level 88.8 %
     Track quality 100.0 %
     Test CRC A0C8BEA1
     Copy CRC A0C8BEA1
     Accurately ripped (confidence 7)  [62531BF3]
     Copy OK
Track  4
     Filename C:\Rips\Babyland\2004 - The Finger\04 - Babyland - Past Lives.wav
     Peak level 92.0 %
     Track quality 100.0 %
     Test CRC 2D51F9D4
     Copy CRC 2D51F9D4
     Accurately ripped (confidence 6)  [3B7CBF91]
     Copy OK
Track  5
     Filename C:\Rips\Babyland\2004 - The Finger\05 - Babyland - Reno Machine.wav
     Peak level 100.0 %
     Track quality 100.0 %
     Test CRC F6826FF6
     Copy CRC F6826FF6
     Accurately ripped (confidence 6)  [829E781B]
     Copy OK
Track  6
     Filename C:\Rips\Babyland\2004 - The Finger\06 - Babyland - Guard Dogs.wav
     Peak level 100.0 %
     Track quality 99.9 %
     Test CRC 88563DF6
     Copy CRC 88563DF6
     Accurately ripped (confidence 6)  [0D330AA1]
     Copy OK
Track  7
     Filename C:\Rips\Babyland\2004 - The Finger\07 - Babyland - Nowadays.wav
     Peak level 84.5 %
     Track quality 100.0 %
     Test CRC 282F3A40
     Copy CRC 282F3A40
     Accurately ripped (confidence 6)  [BC25DCF7]
     Copy OK
Track  8
     Filename C:\Rips\Babyland\2004 - The Finger\08 - Babyland - Cabrini Manor.wav
     Peak level 100.0 %
     Track quality 100.0 %
     Copy CRC E2D0E055
     Accurately ripped (confidence 6)  [0A127E26]
     Copy OK
Track  9
     Filename C:\Rips\Babyland\2004 - The Finger\09 - Babyland - Startled by the Obvious.wav
     Peak level 100.0 %
     Track quality 100.0 %
     Test CRC 0F836ECD
     Copy CRC 0F836ECD
     Accurately ripped (confidence 6)  [3D690A05]
     Copy OK
Track 10
     Filename C:\Rips\Babyland\2004 - The Finger\10 - Babyland - Nativity.wav
     Peak level 100.0 %
     Track quality 100.0 %
     Test CRC 444C00D6
     Copy CRC 444C00D6
     Accurately ripped (confidence 6)  [6AD9C91D]
     Copy OK
Track 11
     Filename C:\Rips\Babyland\2004 - The Finger\11 - Babyland - Gehry.wav
     Pre-gap length  0:00:01.05
     Peak level 78.8 %
     Track quality 100.0 %
     Test CRC 6AAD99A9
     Copy CRC 6AAD99A9
     Accurately ripped (confidence 6)  [42793048]
     Copy OK
Track 12
     Filename C:\Rips\Babyland\2004 - The Finger\12 - Babyland - LMYA.wav
     Peak level 88.9 %
     Track quality 100.0 %
     Test CRC 21157522
     Copy CRC 21157522
     Accurately ripped (confidence 6)  [51F08237]
     Copy OK
All tracks accurately ripped
No errors occurred
End of status report
------------------------------------------------------------
Exact Audio Copy V0.99 prebeta 5 from 4. May 2009
EAC extraction logfile from 6. October 2010, 23:20
Babyland / The Finger
Used drive  : MATSHITADVD-R   UJ-868   Adapter: 1  ID: 0
Read mode               : Secure
Utilize accurate stream : Yes
Defeat audio cache      : Yes
Make use of C2 pointers : No
Read offset correction                      : 102
Overread into Lead-In and Lead-Out          : No
Fill up missing offset samples with silence : Yes
Delete leading and trailing silent blocks   : No
Null samples used in CRC calculations       : Yes
Used interface                              : Native Win32 interface for Win NT & 2000
Gap handling                                : Appended to previous track
Used output format              : User Defined Encoder
Selected bitrate                : 128 kBit/s
Quality                         : High
Add ID3 tag                     : No
Command line compressor         : C:\Program Files\Exact Audio Copy\Flac\flac.exe
Additional command line options : -V -8 -T "artist=%a" -T "title=%t" -T "album=%g" -T "date=%y" -T "tracknumber=%n" -T "genre=%m" %s
TOC of the extracted CD
     Track |   Start  |  Length  | Start sector | End sector
    ---------------------------------------------------------
        1  |  0:00.00 |  2:23.71 |         0    |    10795
        2  |  2:23.71 |  5:21.14 |     10796    |    34884
        3  |  7:45.10 |  2:52.54 |     34885    |    47838
        4  | 10:37.64 |  3:31.43 |     47839    |    63706
        5  | 14:09.32 |  3:59.12 |     63707    |    81643
        6  | 18:08.44 |  6:24.62 |     81644    |   110505
        7  | 24:33.31 |  3:59.37 |    110506    |   128467
        8  | 28:32.68 |  3:50.28 |    128468    |   145745
        9  | 32:23.21 |  5:14.62 |    145746    |   169357
       10  | 37:38.08 |  4:55.17 |    169358    |   191499
       11  | 42:33.25 |  4:28.32 |    191500    |   211631
       12  | 47:01.57 |  4:32.57 |    211632    |   232088
Track  8
     Filename C:\Rips\Babyland\2004 - The Finger\08 - Babyland - Cabrini Manor.wav
     Peak level 100.0 %
     Track quality 100.0 %
     Test CRC E2D0E055
     Copy CRC E2D0E055
     Accurately ripped (confidence 6)  [0A127E26]
     Copy OK
All tracks accurately ripped
No errors occurred
End of status report
Код:
REM GENRE Industrial
REM DATE 2004
REM DISCID A20C160C
REM COMMENT "ExactAudioCopy v0.99pb5"
PERFORMER "Babyland"
TITLE "The Finger"
FILE "Babyland\2004 - The Finger\01 - Babyland - Loss Leader.wav" WAVE
  TRACK 01 AUDIO
    TITLE "Loss Leader"
    PERFORMER "Babyland"
    INDEX 01 00:00:00
FILE "Babyland\2004 - The Finger\02 - Babyland - Defeated.wav" WAVE
  TRACK 02 AUDIO
    TITLE "Defeated"
    PERFORMER "Babyland"
    INDEX 01 00:00:00
FILE "Babyland\2004 - The Finger\03 - Babyland - Fast Space.wav" WAVE
  TRACK 03 AUDIO
    TITLE "Fast Space"
    PERFORMER "Babyland"
    INDEX 01 00:00:00
FILE "Babyland\2004 - The Finger\04 - Babyland - Past Lives.wav" WAVE
  TRACK 04 AUDIO
    TITLE "Past Lives"
    PERFORMER "Babyland"
    INDEX 01 00:00:00
FILE "Babyland\2004 - The Finger\05 - Babyland - Reno Machine.wav" WAVE
  TRACK 05 AUDIO
    TITLE "Reno Machine"
    PERFORMER "Babyland"
    INDEX 01 00:00:00
FILE "Babyland\2004 - The Finger\06 - Babyland - Guard Dogs.wav" WAVE
  TRACK 06 AUDIO
    TITLE "Guard Dogs"
    PERFORMER "Babyland"
    INDEX 01 00:00:00
FILE "Babyland\2004 - The Finger\07 - Babyland - Nowadays.wav" WAVE
  TRACK 07 AUDIO
    TITLE "Nowadays"
    PERFORMER "Babyland"
    INDEX 01 00:00:00
FILE "Babyland\2004 - The Finger\08 - Babyland - Cabrini Manor.wav" WAVE
  TRACK 08 AUDIO
    TITLE "Cabrini Manor"
    PERFORMER "Babyland"
    INDEX 01 00:00:00
FILE "Babyland\2004 - The Finger\09 - Babyland - Startled by the Obvious.wav" WAVE
  TRACK 09 AUDIO
    TITLE "Startled by the Obvious"
    PERFORMER "Babyland"
    INDEX 01 00:00:00
FILE "Babyland\2004 - The Finger\10 - Babyland - Nativity.wav" WAVE
  TRACK 10 AUDIO
    TITLE "Nativity"
    PERFORMER "Babyland"
    INDEX 01 00:00:00
  TRACK 11 AUDIO
    TITLE "Gehry"
    PERFORMER "Babyland"
    INDEX 00 04:54:13
FILE "Babyland\2004 - The Finger\11 - Babyland - Gehry.wav" WAVE
    INDEX 01 00:00:00
FILE "Babyland\2004 - The Finger\12 - Babyland - LMYA.wav" WAVE
  TRACK 12 AUDIO
    TITLE "LMYA"
    PERFORMER "Babyland"
    INDEX 01 00:00:00
BABYLAND embodies the integration of electronic music with the direct approach of hardcore and the intensity of junk noise. Compositions are conceptually based on the extreme emotional elements of humankind as reflected in our continual evolution and search for meaning within our own existence.
Throughout the years, elements of synth pop, hardcore punk rock, new wave, techno, drum & bass and noise have all fallen prey to our continual experimentation. We utilize machinery twisted through misuse and human error to aggressively address our audience with empathy and concern; The electronic elements and primitive rhythmic base of the music provides an intense clarity and opposition to the resulting confusion and noise. The stronghold of our existence has always been intense live performances which confront audiences with an honest celebration of extreme energy, harsh sonic and visual elements, and experimental destruction. In other words, we take ourselves way too seriously.
Внимание! Все выложенные здесь материалы предоставлены исключительно в целях ознакомления! После ознакомления с материалами Вы обязаны их удалить! Если Вы хотите пользоваться данным материалом в дальнейшем – Вы должны приобрести лицензионный диск.
Лучшая ваша благодарность за раздачу - отзывы об альбоме!
Правила, инструкции, FAQ!!!
Торрент  Добавлен [26 июн 2020, 16:52] Скачать торрент Магнет ссылка
Скачать торрент
[ Размер 15.12 КБ / Просмотров 3 ]

Статус
Проверен 
 
Размер  354.78 МБ
Приватный: Нет (DHT включён)
.torrent скачан  0
 


     Отправить личное сообщение
   
Страница 1 из 1
Показать сообщения за:  Поле сортировки  
Начать новую тему Ответить на тему


Сейчас этот форум просматривают: нет зарегистрированных пользователей и гости: 0


Вы не можете начинать темы
Вы не можете отвечать на сообщения
Вы не можете редактировать свои сообщения
Вы не можете удалять свои сообщения
Вы не можете добавлять вложения

Перейти:  
cron