Начать новую тему Ответить на тему
Статистика раздачи
Размер: 379.01 МБ | Добавлен: 26 июн 2020, 16:52 | Скачали: 0
Сидеров: 0  [0 байт/сек]    Личеров: 0  [0 байт/сек]
Пред. тема | След. тема 

Автор
Сообщение

СообщениеДобавлено: 26 июн 2020, 16:52 

Ответить с цитатой 

Babyland - Decade One
Жанр: Electronic, Industrial
Страна-производитель диска: USA
Год издания диска: 2002
Издатель (лейбл): Dependent Records
Номер по каталогу: Mind 042
Страна: USA
Аудио кодек: FLAC (*.flac)
Тип рипа: tracks+.cue
Битрейт аудио: lossless
Продолжительность: 53:12.760
Источник (релизер): What.CD
Наличие сканов в содержимом раздачи: нет
Треклист:
1 Mask 4:02
2 Youth Choker 5:05
3 Kill Bugs 3:31
4 Mindfuck 3:06
5 The Door Northern 5:36
6 Worst Case Scenario 4:41
7 Lukewarm 3:20
8 Logan's Run 2:49
9 Back Of Love 2:46
10 The Issuing Line 2:38
11 Reality 3:19
12 Cop-Out 2:17
13 Double Coupon 3:44
14 Sophomore 6:13
Код:
Exact Audio Copy V0.99 prebeta 4 from 23. January 2008
EAC extraction logfile from 21. September 2008, 17:21
Babyland / Decade One
Used drive  : TSSTcorpDVD+-RW TS-H653B   Adapter: 1  ID: 0
Read mode               : Secure
Utilize accurate stream : Yes
Defeat audio cache      : Yes
Make use of C2 pointers : No
Read offset correction                      : 6
Overread into Lead-In and Lead-Out          : No
Fill up missing offset samples with silence : Yes
Delete leading and trailing silent blocks   : No
Null samples used in CRC calculations       : Yes
Used interface                              : Installed external ASPI interface
Gap handling                                : Appended to previous track
Used output format              : User Defined Encoder
Selected bitrate                : 192 kBit/s
Quality                         : High
Add ID3 tag                     : No
Command line compressor         : C:\Program Files\Exact Audio Copy\Flac\flac.exe
Additional command line options : -V -8 -T "artist=%a" -T "title=%t" -T "album=%g" -T "date=%y" -T "tracknumber=%n" -T "genre=%m" %s
TOC of the extracted CD
     Track |   Start  |  Length  | Start sector | End sector
    ---------------------------------------------------------
        1  |  0:00.00 |  4:02.03 |         0    |    18152
        2  |  4:02.03 |  5:05.18 |     18153    |    41045
        3  |  9:07.21 |  3:31.28 |     41046    |    56898
        4  | 12:38.49 |  3:06.16 |     56899    |    70864
        5  | 15:44.65 |  5:36.60 |     70865    |    96124
        6  | 21:21.50 |  4:41.06 |     96125    |   117205
        7  | 26:02.56 |  3:20.35 |    117206    |   132240
        8  | 29:23.16 |  2:49.10 |    132241    |   144925
        9  | 32:12.26 |  2:46.67 |    144926    |   157442
       10  | 34:59.18 |  2:38.70 |    157443    |   169362
       11  | 37:38.13 |  3:19.67 |    169363    |   184354
       12  | 40:58.05 |  2:17.00 |    184355    |   194629
       13  | 43:15.05 |  3:44.08 |    194630    |   211437
       14  | 46:59.13 |  6:13.44 |    211438    |   239456
Track  1
     Filename C:\A\Babyland - Decade One [flac]\01 - Mask.wav
     Pre-gap length  0:00:02.00
     Peak level 98.2 %
     Track quality 100.0 %
     Test CRC F1509716
     Copy CRC F1509716
     Track not present in AccurateRip database
     Copy OK
Track  2
     Filename C:\A\Babyland - Decade One [flac]\02 - Youth Choker.wav
     Pre-gap length  0:00:01.08
     Peak level 98.2 %
     Track quality 100.0 %
     Test CRC 4133AC91
     Copy CRC 4133AC91
     Track not present in AccurateRip database
     Copy OK
Track  3
     Filename C:\A\Babyland - Decade One [flac]\03 - Kill Bugs.wav
     Pre-gap length  0:00:00.64
     Peak level 98.2 %
     Track quality 100.0 %
     Test CRC 0E562FB8
     Copy CRC 0E562FB8
     Track not present in AccurateRip database
     Copy OK
Track  4
     Filename C:\A\Babyland - Decade One [flac]\04 - Mindfuck.wav
     Pre-gap length  0:00:01.30
     Peak level 98.2 %
     Track quality 100.0 %
     Test CRC 59A686FF
     Copy CRC 59A686FF
     Track not present in AccurateRip database
     Copy OK
Track  5
     Filename C:\A\Babyland - Decade One [flac]\05 - The Door Northern.wav
     Pre-gap length  0:00:01.25
     Peak level 98.2 %
     Track quality 100.0 %
     Test CRC F85218E6
     Copy CRC F85218E6
     Track not present in AccurateRip database
     Copy OK
Track  6
     Filename C:\A\Babyland - Decade One [flac]\06 - Worst Case Scenario.wav
     Pre-gap length  0:00:00.85
     Peak level 98.2 %
     Track quality 100.0 %
     Test CRC E238A224
     Copy CRC E238A224
     Track not present in AccurateRip database
     Copy OK
Track  7
     Filename C:\A\Babyland - Decade One [flac]\07 - Lukewarm.wav
     Pre-gap length  0:00:01.06
     Peak level 98.2 %
     Track quality 100.0 %
     Test CRC 0C04CC98
     Copy CRC 0C04CC98
     Track not present in AccurateRip database
     Copy OK
Track  8
     Filename C:\A\Babyland - Decade One [flac]\08 - Logans Run.wav
     Pre-gap length  0:00:01.78
     Peak level 98.2 %
     Track quality 100.0 %
     Test CRC 9C8D8CFC
     Copy CRC 9C8D8CFC
     Track not present in AccurateRip database
     Copy OK
Track  9
     Filename C:\A\Babyland - Decade One [flac]\09 - Back of Love.wav
     Pre-gap length  0:00:01.78
     Peak level 91.1 %
     Track quality 100.0 %
     Test CRC 7E5FFB7C
     Copy CRC 7E5FFB7C
     Track not present in AccurateRip database
     Copy OK
Track 10
     Filename C:\A\Babyland - Decade One [flac]\10 - The Issuing Line.wav
     Pre-gap length  0:00:01.45
     Peak level 98.2 %
     Track quality 100.0 %
     Test CRC D285D7BB
     Copy CRC D285D7BB
     Track not present in AccurateRip database
     Copy OK
Track 11
     Filename C:\A\Babyland - Decade One [flac]\11 - Reality.wav
     Pre-gap length  0:00:01.44
     Peak level 98.2 %
     Track quality 99.9 %
     Test CRC C61DC04F
     Copy CRC C61DC04F
     Track not present in AccurateRip database
     Copy OK
Track 12
     Filename C:\A\Babyland - Decade One [flac]\12 - Cop-Out.wav
     Pre-gap length  0:00:01.01
     Peak level 98.2 %
     Track quality 100.0 %
     Test CRC BE3C8212
     Copy CRC BE3C8212
     Track not present in AccurateRip database
     Copy OK
Track 13
     Filename C:\A\Babyland - Decade One [flac]\13 - Double Coupon.wav
     Pre-gap length  0:00:01.34
     Peak level 98.2 %
     Track quality 99.9 %
     Test CRC C8ACAA02
     Copy CRC C8ACAA02
     Track not present in AccurateRip database
     Copy OK
Track 14
     Filename C:\A\Babyland - Decade One [flac]\14 - Sophomore.wav
     Pre-gap length  0:00:01.84
     Peak level 98.2 %
     Track quality 99.9 %
     Test CRC 728FD2D2
     Copy CRC 728FD2D2
     Track not present in AccurateRip database
     Copy OK
None of the tracks are present in the AccurateRip database
No errors occurred
End of status report
Код:
REM GENRE Industrial
REM DATE 2002
REM DISCID BE0C780E
REM COMMENT "ExactAudioCopy v0.99pb4"
PERFORMER "Babyland"
TITLE "Decade One"
FILE "01 - Mask.wav" WAVE
  TRACK 01 AUDIO
    TITLE "Mask"
    PERFORMER "Babyland"
    INDEX 01 00:00:00
  TRACK 02 AUDIO
    TITLE "Youth Choker"
    PERFORMER "Babyland"
    INDEX 00 04:00:72
FILE "02 - Youth Choker.wav" WAVE
    INDEX 01 00:00:00
  TRACK 03 AUDIO
    TITLE "Kill Bugs"
    PERFORMER "Babyland"
    INDEX 00 05:04:45
FILE "03 - Kill Bugs.wav" WAVE
    INDEX 01 00:00:00
  TRACK 04 AUDIO
    TITLE "Mindfuck"
    PERFORMER "Babyland"
    INDEX 00 03:30:05
FILE "04 - Mindfuck.wav" WAVE
    INDEX 01 00:00:00
  TRACK 05 AUDIO
    TITLE "The Door Northern"
    PERFORMER "Babyland"
    INDEX 00 03:04:72
FILE "05 - The Door Northern.wav" WAVE
    INDEX 01 00:00:00
  TRACK 06 AUDIO
    TITLE "Worst Case Scenario"
    PERFORMER "Babyland"
    INDEX 00 05:35:71
FILE "06 - Worst Case Scenario.wav" WAVE
    INDEX 01 00:00:00
  TRACK 07 AUDIO
    TITLE "Lukewarm"
    PERFORMER "Babyland"
    INDEX 00 04:40:01
FILE "07 - Lukewarm.wav" WAVE
    INDEX 01 00:00:00
  TRACK 08 AUDIO
    TITLE "Logans Run"
    PERFORMER "Babyland"
    INDEX 00 03:18:51
FILE "08 - Logans Run.wav" WAVE
    INDEX 01 00:00:00
  TRACK 09 AUDIO
    TITLE "Back of Love"
    PERFORMER "Babyland"
    INDEX 00 02:47:26
FILE "09 - Back of Love.wav" WAVE
    INDEX 01 00:00:00
  TRACK 10 AUDIO
    TITLE "The Issuing Line"
    PERFORMER "Babyland"
    INDEX 00 02:45:33
FILE "10 - The Issuing Line.wav" WAVE
    INDEX 01 00:00:00
  TRACK 11 AUDIO
    TITLE "Reality"
    PERFORMER "Babyland"
    INDEX 00 02:37:37
FILE "11 - Reality.wav" WAVE
    INDEX 01 00:00:00
  TRACK 12 AUDIO
    TITLE "Cop-Out"
    PERFORMER "Babyland"
    INDEX 00 03:18:66
FILE "12 - Cop-Out.wav" WAVE
    INDEX 01 00:00:00
  TRACK 13 AUDIO
    TITLE "Double Coupon"
    PERFORMER "Babyland"
    INDEX 00 02:15:49
FILE "13 - Double Coupon.wav" WAVE
    INDEX 01 00:00:00
  TRACK 14 AUDIO
    TITLE "Sophomore"
    PERFORMER "Babyland"
    INDEX 00 03:42:20
FILE "14 - Sophomore.wav" WAVE
    INDEX 01 00:00:00
BABYLAND embodies the integration of electronic music with the direct approach of hardcore and the intensity of junk noise. Compositions are conceptually based on the extreme emotional elements of humankind as reflected in our continual evolution and search for meaning within our own existence.
Throughout the years, elements of synth pop, hardcore punk rock, new wave, techno, drum & bass and noise have all fallen prey to our continual experimentation. We utilize machinery twisted through misuse and human error to aggressively address our audience with empathy and concern; The electronic elements and primitive rhythmic base of the music provides an intense clarity and opposition to the resulting confusion and noise. The stronghold of our existence has always been intense live performances which confront audiences with an honest celebration of extreme energy, harsh sonic and visual elements, and experimental destruction. In other words, we take ourselves way too seriously.
Внимание! Все выложенные здесь материалы предоставлены исключительно в целях ознакомления! После ознакомления с материалами Вы обязаны их удалить! Если Вы хотите пользоваться данным материалом в дальнейшем – Вы должны приобрести лицензионный диск.
Лучшая ваша благодарность за раздачу - отзывы об альбоме!
Правила, инструкции, FAQ!!!
Торрент  Добавлен [26 июн 2020, 16:52] Скачать торрент Магнет ссылка
Скачать торрент
[ Размер 16.11 КБ / Просмотров 4 ]

Статус
Проверен 
 
Размер  379.01 МБ
Приватный: Нет (DHT включён)
.torrent скачан  0
 


     Отправить личное сообщение
   
Страница 1 из 1
Показать сообщения за:  Поле сортировки  
Начать новую тему Ответить на тему


Сейчас этот форум просматривают: нет зарегистрированных пользователей и гости: 0


Вы не можете начинать темы
Вы не можете отвечать на сообщения
Вы не можете редактировать свои сообщения
Вы не можете удалять свои сообщения
Вы не можете добавлять вложения

Перейти:  
cron