Начать новую тему Ответить на тему
Статистика раздачи
Размер: 644.77 МБ | Добавлен: 26 июн 2020, 17:18 | Скачали: 0
Сидеров: 0  [0 байт/сек]    Личеров: 0  [0 байт/сек]
Пред. тема | След. тема 

Автор
Сообщение

СообщениеДобавлено: 26 июн 2020, 17:18 

Ответить с цитатой 

Binary Park / Singularity (+Exclusive Bonus Material)
Жанр: Electronic / Electro-Industrial / Intelligent Electropop
Носитель: CD
Год издания: 2014
Издатель (лейбл): Infacted Recordings
Номер по каталогу: FACT 3253
Страна исполнителя (группы): Germany
Аудиокодек: FLAC (*.flac)
Тип рипа: image+.cue
Битрейт аудио: lossless
Продолжительность: 1:13:18
Источник (релизер): lossless-galaxy.ru (swint68)
Наличие сканов в содержимом раздачи: да
Треклист:
01. Lab Coat
02. Empty Frame (Extended mix)
03. Mute
04. She's Insane (Distortion mix)
05. Stormchaser
06. Before The Light
07. Wasteland
08. Unforgiven
09. A Higher Mind
10. Mental Interference
11. Humans (feat. Daniel Myer)
12. She's Insane (Dominatrix remix)
13. Mute (Syndroid remix)
14. Machine Core
15. [Silence]
16. [Silence]
17. [Silence]
18. [Silence]
19. [Hidden Track]
Код:
Exact Audio Copy V1.0 beta 3 from 29. August 2011
Отчёт EAC об извлечении, выполненном 27. декабря 2014, 18:58
Binary Park / Singularity
Дисковод: PIONEER DVD-RW DVR-XD10 Adapter: 1 ID: 0
Режим чтения : Достоверность
Использование точного потока : Да
Отключение кэша аудио : Да
Использование указателей C2 : Нет
Коррекция смещения при чтении : 96
Способность читать области Lead-in и Lead-out : Нет
Заполнение пропущенных сэмплов тишиной : Да
Удаление блоков с тишиной в начале и конце : Нет
При вычислениях CRC использовались нулевые сэмплы : Да
Интерфейс : Встроенный Win32-интерфейс для Win NT/2000
Выходной формат : Пользовательский кодировщик
Выбранный битрейт : 1024 kBit/s
Качество : Высокий
Добавление ID3-тега : Нет
Утилита сжатия : C:\Program Files (x86)\Exact Audio Copy\Flac\flac.exe
Дополнительные параметры : -V -8 -T "Date=%year%" -T "Genre=%genre%" -T "Comment=ripped by termoflex" %source%
TOC извлечённого CD
Трек | Старт | Длительность | Начальный сектор | Конечный сектор
---------------------------------------------------------------------
1 | 0:00.00 | 3:26.35 | 0 | 15484
2 | 3:26.35 | 6:57.15 | 15485 | 46774
3 | 10:23.50 | 4:23.21 | 46775 | 66520
4 | 14:46.71 | 5:20.57 | 66521 | 90577
5 | 20:07.53 | 5:15.34 | 90578 | 114236
6 | 25:23.12 | 4:01.65 | 114237 | 132376
7 | 29:25.02 | 4:15.24 | 132377 | 151525
8 | 33:40.26 | 4:28.50 | 151526 | 171675
9 | 38:09.01 | 4:33.02 | 171676 | 192152
10 | 42:42.03 | 5:09.06 | 192153 | 215333
11 | 47:51.09 | 3:33.23 | 215334 | 231331
12 | 51:24.32 | 5:52.02 | 231332 | 257733
13 | 57:16.34 | 5:35.21 | 257734 | 282879
14 | 62:51.55 | 6:02.28 | 282880 | 310057
15 | 68:54.08 | 0:08.00 | 310058 | 310657
16 | 69:02.08 | 0:08.00 | 310658 | 311257
17 | 69:10.08 | 0:08.00 | 311258 | 311857
18 | 69:18.08 | 0:08.00 | 311858 | 312457
19 | 69:26.08 | 3:52.44 | 312458 | 329901
Характеристики диапазона извлечения и сообщения об ошибках
Выбранный диапазон
Имя файла C:\Users\HP\Desktop\Music\Binary Park - Singularity.wav
Пиковый уровень 100.0 %
Скорость извлечения 4.7 X
Качество диапазона 99.9 %
CRC теста C487DD3F
CRC копии C487DD3F
Копирование... OK
Ошибок не произошло
AccurateRip: сводка
Трек 1 отсутствует в базе данных
Трек 2 отсутствует в базе данных
Трек 3 отсутствует в базе данных
Трек 4 отсутствует в базе данных
Трек 5 отсутствует в базе данных
Трек 6 отсутствует в базе данных
Трек 7 отсутствует в базе данных
Трек 8 отсутствует в базе данных
Трек 9 отсутствует в базе данных
Трек 10 отсутствует в базе данных
Трек 11 отсутствует в базе данных
Трек 12 отсутствует в базе данных
Трек 13 отсутствует в базе данных
Трек 14 отсутствует в базе данных
Трек 15 отсутствует в базе данных
Трек 16 отсутствует в базе данных
Трек 17 отсутствует в базе данных
Трек 18 отсутствует в базе данных
Трек 19 отсутствует в базе данных
Ни одного трека нет в базе AccurateRip
Конец отчёта
Код:
REM GENRE Electro
REM DATE 2014
REM DISCID 15112E13
REM COMMENT "ExactAudioCopy v1.0b3"
PERFORMER "Binary Park"
TITLE "Singularity"
FILE "Binary Park - Singularity.flac" WAVE
  TRACK 01 AUDIO
    TITLE "Lab Coat"
    PERFORMER "Binary Park"
    INDEX 01 00:00:00
  TRACK 02 AUDIO
    TITLE "Empty Frame (Extended Mix)"
    PERFORMER "Binary Park"
    INDEX 01 03:26:35
  TRACK 03 AUDIO
    TITLE "Mute"
    PERFORMER "Binary Park"
    INDEX 01 10:23:50
  TRACK 04 AUDIO
    TITLE "She's Insane (Distortion Mix)"
    PERFORMER "Binary Park"
    INDEX 01 14:46:71
  TRACK 05 AUDIO
    TITLE "Stormchaser"
    PERFORMER "Binary Park"
    INDEX 01 20:07:53
  TRACK 06 AUDIO
    TITLE "Before The Light"
    PERFORMER "Binary Park"
    INDEX 01 25:23:12
  TRACK 07 AUDIO
    TITLE "Wasteland"
    PERFORMER "Binary Park"
    INDEX 01 29:25:02
  TRACK 08 AUDIO
    TITLE "Unforgiven"
    PERFORMER "Binary Park"
    INDEX 01 33:40:26
  TRACK 09 AUDIO
    TITLE "A Higher Mind"
    PERFORMER "Binary Park"
    INDEX 01 38:09:01
  TRACK 10 AUDIO
    TITLE "Mental Interference"
    PERFORMER "Binary Park"
    INDEX 01 42:42:03
  TRACK 11 AUDIO
    TITLE "Humans (feat. Daniel Myer)"
    PERFORMER "Binary Park"
    INDEX 01 47:51:09
  TRACK 12 AUDIO
    TITLE "She's Insane (Dominatrix Remix)"
    PERFORMER "Binary Park"
    INDEX 01 51:24:32
  TRACK 13 AUDIO
    TITLE "Mute (Syndroid Remix)"
    PERFORMER "Binary Park"
    INDEX 01 57:16:34
  TRACK 14 AUDIO
    TITLE "Machine Core"
    PERFORMER "Binary Park"
    INDEX 01 62:51:55
  TRACK 15 AUDIO
    TITLE "Silence"
    PERFORMER "Binary Park"
    INDEX 01 68:54:08
  TRACK 16 AUDIO
    TITLE "Silence"
    PERFORMER "Binary Park"
    INDEX 01 69:02:08
  TRACK 17 AUDIO
    TITLE "Silence"
    PERFORMER "Binary Park"
    INDEX 01 69:10:08
  TRACK 18 AUDIO
    TITLE "Silence"
    PERFORMER "Binary Park"
    INDEX 01 69:18:08
  TRACK 19 AUDIO
    TITLE "Hidden Track"
    PERFORMER "Binary Park"
    INDEX 01 69:26:08
Код:
PERFORMER: auCDtect Task Manager, ver. 1.5.1RC4 build 1.5.1.5
Copyright (c) 2008-2010 y-soft. All rights reserved
[url=http://y-soft.org]http://y-soft.org[/url]
ANALYZER: auCDtect: CD records authenticity detector, version 0.8.2
Copyright (c) 2004 Oleg Berngardt. All rights reserved.
Copyright (c) 2004 Alexander Djourik. All rights reserved.
FILE: Binary Park - Singularity.flac
  Size: 520451921 Hash: 65056F80B1ABE5CC864DA0C6703DE17A Accuracy: -m0
  Conclusion: CDDA 100%
  Signature: 9D341E2E04D4B8A91A525B9D196C082CDB6B92C0
Bonus Tracks:
Носитель: WEB
Год издания: 2014
Издатель (лейбл): Infacted Recordings
Аудиокодек: FLAC (*.flac)
Битрейт аудио: lossless
Продолжительность: 14:50
01. Empty Frame (Bonus Mix)
02. Mute (Bonus Mix)
03. Mindlock (Bonus Track)
Код:
PERFORMER: auCDtect Task Manager, ver. 1.5.1RC4 build 1.5.1.5
Copyright (c) 2008-2010 y-soft. All rights reserved
[url=http://y-soft.org]http://y-soft.org[/url]
ANALYZER: auCDtect: CD records authenticity detector, version 0.8.2
Copyright (c) 2004 Oleg Berngardt. All rights reserved.
Copyright (c) 2004 Alexander Djourik. All rights reserved.
FILE: 01. The Empty Frame (Bonus Mix).flac
  Size: 32814384 Hash: 02B5226AB0792F72FC5918E1D1D6D535 Accuracy: -m0
  Conclusion: CDDA 100%
  Signature: CB24CEEE8AD8FDB56A573B47DBBA78D2EA373005
FILE: 02. Mute (Bonus Mix).flac
  Size: 33264437 Hash: D444D80260C71A5D7D9EF681261A7643 Accuracy: -m0
  Conclusion: CDDA 100%
  Signature: BCBB9E462D059E6B701993269553471A38A76B16
FILE: 03. Mindlock (Bonus Track).flac
  Size: 42257724 Hash: EF3A43BFC4EBFE1B305A0911AD4834C9 Accuracy: -m0
  Conclusion: CDDA 100%
  Signature: 3917DF486A4BA8B80E7DF708F9FF10A870E612E8
Эксклюзивные бонус материалы (бонус треки, а так же обои для рабочего стола для ПК и мобильных устройств) были скачаны по промо-коду, указанному в CD.
Правила, инструкции, FAQ!!!
Торрент  Добавлен [26 июн 2020, 17:18] Скачать торрент Магнет ссылка
Скачать торрент
[ Размер 31.43 КБ / Просмотров 8 ]

Статус
Проверен 
 
Размер  644.77 МБ
Приватный: Нет (DHT включён)
.torrent скачан  0
 


     Отправить личное сообщение
   
Страница 1 из 1
Показать сообщения за:  Поле сортировки  
Начать новую тему Ответить на тему


Сейчас этот форум просматривают: нет зарегистрированных пользователей и гости: 0


Вы не можете начинать темы
Вы не можете отвечать на сообщения
Вы не можете редактировать свои сообщения
Вы не можете удалять свои сообщения
Вы не можете добавлять вложения

Перейти:  
cron