Начать новую тему Ответить на тему
Статистика раздачи
Размер: 394.09 МБ | Добавлен: 26 июн 2020, 17:49 | Скачали: 0
Сидеров: 0  [0 байт/сек]    Личеров: 0  [0 байт/сек]
Пред. тема | След. тема 

Автор
Сообщение

СообщениеДобавлено: 26 июн 2020, 17:49 

Ответить с цитатой 

Dystronic / Vague Visions
Жанр: Electronic / Electro, Industrial
Страна-производитель диска: Germany
Год издания диска: 2010
Издатель (лейбл): Simulacron
Номер по каталогу: SMC-AUD04
Формат: CD, Album
Аудиокодек: FLAC (*.flac)
Тип рипа: image+.cue
Битрейт аудио: lossless
Продолжительность: 0:42:59.17
Источник (релизер): Физический носитель (Собственный рип с оригинала).
Наличие сканов в содержимом раздачи: да
Треклист:
01. Häuserschlucht [6:28]
02. Dystructive Fracts [4:40]
03. Eiswelt [5:03]
04. Vague Visions [4:15]
05. You Reap What You Sow [4:25]
06. Urban Society [4:32]
07. The Day Nature Took Control [5:18]
08. Acidcrust [5:04]
09. Past Industry [3:15]
Код:
Exact Audio Copy V1.0 beta 3 from 29. August 2011
EAC extraction logfile from 28. January 2012, 21:57
Dystronic / Vague Visions
Used drive  : PLEXTOR BDDVDR PX-B320SA   Adapter: 0  ID: 2
Read mode               : Secure
Utilize accurate stream : Yes
Defeat audio cache      : Yes
Make use of C2 pointers : No
Read offset correction                      : 6
Overread into Lead-In and Lead-Out          : No
Fill up missing offset samples with silence : Yes
Delete leading and trailing silent blocks   : No
Null samples used in CRC calculations       : Yes
Used interface                              : Native Win32 interface for Win NT & 2000
Used output format              : User Defined Encoder
Selected bitrate                : 128 kBit/s
Quality                         : High
Add ID3 tag                     : No
Command line compressor         : C:\Program Files (x86)\FLAC\flac.exe
Additional command line options : -V -8 -T "Date=%year%" -T "Genre=%genre%" %source%
TOC of the extracted CD
     Track |   Start  |  Length  | Start sector | End sector
    ---------------------------------------------------------
        1  |  0:00.00 |  6:28.13 |         0    |    29112
        2  |  6:28.13 |  4:40.00 |     29113    |    50112
        3  | 11:08.13 |  5:03.01 |     50113    |    72838
        4  | 16:11.14 |  4:14.55 |     72839    |    91943
        5  | 20:25.69 |  4:24.45 |     91944    |   111788
        6  | 24:50.39 |  4:31.42 |    111789    |   132155
        7  | 29:22.06 |  5:18.27 |    132156    |   156032
        8  | 34:40.33 |  5:03.58 |    156033    |   178815
        9  | 39:44.16 |  3:15.01 |    178816    |   193441
Range status and errors
Selected range
     Filename D:\Dystronic - Vague Visions (2010)\Dystronic - Vague Visions.wav
     Peak level 99.9 %
     Extraction speed 7.4 X
     Range quality 100.0 %
     Test CRC A5A6712F
     Copy CRC A5A6712F
     Copy OK
No errors occurred
AccurateRip summary
Track  1  not present in database
Track  2  not present in database
Track  3  not present in database
Track  4  not present in database
Track  5  not present in database
Track  6  not present in database
Track  7  not present in database
Track  8  not present in database
Track  9  not present in database
None of the tracks are present in the AccurateRip database
End of status report
==== Log checksum B4190200E05E82D7617F88C939319C9F56B77E13A6D0D9CF230D6B3426CD5476 ====
Раздача осуществляется исключительно в ознакомительных целях!
Всем, кому понравилось творчество Dystronic
, после ознакомления, советую приобрести лицензионный диск, и тем самым поддержать исполнителя !
Handing out is carried out only to get acquainted!
Everyone who likes to art Dystronic
, I advise to follow my example and buy a license legally CD, and thus support the artist!
Правила, инструкции, FAQ!!!
Торрент  Добавлен [26 июн 2020, 17:49] Скачать торрент Магнет ссылка
Скачать торрент
[ Размер 16.35 КБ / Просмотров 8 ]

Статус
Проверен 
 
Размер  394.09 МБ
Приватный: Нет (DHT включён)
.torrent скачан  0
 


     Отправить личное сообщение
   
Страница 1 из 1
Показать сообщения за:  Поле сортировки  
Начать новую тему Ответить на тему


Сейчас этот форум просматривают: нет зарегистрированных пользователей и гости: 0


Вы не можете начинать темы
Вы не можете отвечать на сообщения
Вы не можете редактировать свои сообщения
Вы не можете удалять свои сообщения
Вы не можете добавлять вложения

Перейти:  
cron