Начать новую тему Ответить на тему
Статистика раздачи
Размер: 587.87 МБ | Добавлен: 26 июн 2020, 17:51 | Скачали: 0
Сидеров: 0  [0 байт/сек]    Личеров: 0  [0 байт/сек]
Пред. тема | След. тема 

Автор
Сообщение

СообщениеДобавлено: 26 июн 2020, 17:51 

Ответить с цитатой 

Electrovot / Turning Point
Жанр: Electronic / Electro, EBM, Synth-pop
Страна-производитель диска: Germany
Год издания диска: 2011
Издатель (лейбл): Remote Music
Номер по каталогу: RMT018
Формат: CD, Album
Аудиокодек: FLAC (*.flac)
Тип рипа: image+.cue
Битрейт аудио: lossless
Продолжительность: 1:04:52.30
Источник (релизер): Физический носитель (Собственный рип с оригинала).
Наличие сканов в содержимом раздачи: да
Треклист:
01. The One [5:49]
02. Fate [4:53]
03. Dagger Doll [5:33]
04. Control [4:50]
05. Wasted Life [4:25]
06. Turning Point [4:48]
07. Night Soldier [5:21]
08. Not Enough [6:20]
09. Faded Memory [4:44]
10. End Of The Line [4:51]
11. Winter Day (Red Flag Mix) [4:17]
12. The One (Acoustic Mix) [5:21]
13. Wasted Life (Lights Of Euphoria Mix) [3:41]
Код:
Exact Audio Copy V1.0 beta 3 from 29. August 2011
EAC extraction logfile from 10. February 2012, 21:16
Electrovot / Turning Point
Used drive  : PLEXTOR BDDVDR PX-B320SA   Adapter: 0  ID: 2
Read mode               : Secure
Utilize accurate stream : Yes
Defeat audio cache      : Yes
Make use of C2 pointers : No
Read offset correction                      : 6
Overread into Lead-In and Lead-Out          : No
Fill up missing offset samples with silence : Yes
Delete leading and trailing silent blocks   : No
Null samples used in CRC calculations       : Yes
Used interface                              : Native Win32 interface for Win NT & 2000
Used output format              : User Defined Encoder
Selected bitrate                : 128 kBit/s
Quality                         : High
Add ID3 tag                     : No
Command line compressor         : C:\Program Files (x86)\FLAC\flac.exe
Additional command line options : -V -8 -T "Date=%year%" -T "Genre=%genre%" %source%
TOC of the extracted CD
     Track |   Start  |  Length  | Start sector | End sector
    ---------------------------------------------------------
        1  |  0:00.00 |  5:48.44 |         0    |    26143
        2  |  5:48.44 |  4:52.54 |     26144    |    48097
        3  | 10:41.23 |  5:33.05 |     48098    |    73077
        4  | 16:14.28 |  4:50.24 |     73078    |    94851
        5  | 21:04.52 |  4:24.58 |     94852    |   114709
        6  | 25:29.35 |  4:47.69 |    114710    |   136303
        7  | 30:17.29 |  5:21.29 |    136304    |   160407
        8  | 35:38.58 |  6:19.43 |    160408    |   188875
        9  | 41:58.26 |  4:43.71 |    188876    |   210171
       10  | 46:42.22 |  4:51.02 |    210172    |   231998
       11  | 51:33.24 |  4:16.61 |    231999    |   251259
       12  | 55:50.10 |  5:21.00 |    251260    |   275334
       13  | 61:11.10 |  3:41.20 |    275335    |   291929
Range status and errors
Selected range
     Filename D:\Electrovot - Turning Point (2011)\Electrovot - Turning Point.wav
     Peak level 100.0 %
     Extraction speed 3.7 X
     Range quality 100.0 %
     Test CRC 7D5662AA
     Copy CRC 7D5662AA
     Copy OK
No errors occurred
AccurateRip summary
Track  1  not present in database
Track  2  not present in database
Track  3  not present in database
Track  4  not present in database
Track  5  not present in database
Track  6  not present in database
Track  7  not present in database
Track  8  not present in database
Track  9  not present in database
Track 10  not present in database
Track 11  not present in database
Track 12  not present in database
Track 13  not present in database
None of the tracks are present in the AccurateRip database
End of status report
==== Log checksum 7278EE2364425A81E959DA19E52313B1B377CFF21AC6879749AE89BFD9A2EC3D ====
Раздача осуществляется исключительно в ознакомительных целях!
Всем, кому понравилось творчество Electrovot
, советую приобрести лицензионный диск легально, и тем самым поддержать исполнителя !
Handing out is carried out only to get acquainted!
Everyone who likes to art Electrovot
, I advise to follow my example and buy a license legally CD, and thus support the artist!
Правила, инструкции, FAQ!!!
Торрент  Добавлен [26 июн 2020, 17:51] Скачать торрент Магнет ссылка
Скачать торрент
[ Размер 12.49 КБ / Просмотров 14 ]

Статус
Проверен 
 
Размер  587.87 МБ
Приватный: Нет (DHT включён)
.torrent скачан  0
 


     Отправить личное сообщение
   
Страница 1 из 1
Показать сообщения за:  Поле сортировки  
Начать новую тему Ответить на тему


Сейчас этот форум просматривают: нет зарегистрированных пользователей и гости: 0


Вы не можете начинать темы
Вы не можете отвечать на сообщения
Вы не можете редактировать свои сообщения
Вы не можете удалять свои сообщения
Вы не можете добавлять вложения

Перейти:  
cron