Начать новую тему Ответить на тему
Статистика раздачи
Размер: 278.79 МБ | Добавлен: 26 июн 2020, 17:13 | Скачали: 0
Сидеров: 0  [0 байт/сек]    Личеров: 0  [0 байт/сек]
Пред. тема | След. тема 

Автор
Сообщение

СообщениеДобавлено: 26 июн 2020, 17:13 

Ответить с цитатой 

MOTOR / Man Made Machine
Жанр: Electronic, EBM, Techno
Страна-производитель диска: Deutschland
Год издания: 2012
Издатель (лейбл): CLR X
Номер по каталогу: CLRX001CD
Страна: ? ? ?
Аудиокодек: FLAC (*.flac)
Тип рипа: tracks+.cue
Битрейт аудио: lossless
Продолжительность: 41:28
Источник (релизер): Arq3 (whatCD)
Наличие сканов в содержимом раздачи: нет
Треклист:
01. [3:31] Messed Up
02. [2:48] Hyper Lust
03. [4:32] Man Made Machine
04. [4:10] Control
05. [3:16] Pleasure In Heaven
06. [4:33] Automne
07. [2:47] Autographic
08. [3:11] The Knife
09. [3:51] Hello
10. [3:37] In The Dark
11. [5:13] Between The Night
Код:
Exact Audio Copy V1.0 beta 3 from 29. August 2011
EAC extraction logfile from 17. May 2012, 22:29
MOTOR / Man Made Machine
Used drive  : ATAPI   iHAS124   Y   Adapter: 3  ID: 0
Read mode               : Secure
Utilize accurate stream : Yes
Defeat audio cache      : Yes
Make use of C2 pointers : No
Read offset correction                      : 48
Overread into Lead-In and Lead-Out          : No
Fill up missing offset samples with silence : Yes
Delete leading and trailing silent blocks   : No
Null samples used in CRC calculations       : Yes
Used interface                              : Native Win32 interface for Win NT & 2000
Gap handling                                : Appended to previous track
Used output format              : User Defined Encoder
Selected bitrate                : 1024 kBit/s
Quality                         : High
Add ID3 tag                     : No
Command line compressor         : C:\Program Files\Exact Audio Copy\Flac\flac.exe
Additional command line options : -8 -V -T "ARTIST=%artist%" -T "TITLE=%title%" -T "ALBUM=%albumtitle%" -T "DATE=%year%" -T "TRACKNUMBER=%tracknr%" -T "GENRE=%genre%" -T "PERFORMER=%albuminterpret%" -T "COMPOSER=%composer%" %haslyrics%--tag-from-file=LYRICS="%lyricsfile%"%haslyrics% -T "ALBUMARTIST=%albumartist%" -T "DISCNUMBER=%cdnumber%" -T "TOTALDISCS=%totalcds%" -T "TOTALTRACKS=%numtracks%" -T "COMMENT=%comment%" %source% -o %dest%
TOC of the extracted CD
     Track |   Start  |  Length  | Start sector | End sector
    ---------------------------------------------------------
        1  |  0:00.00 |  3:31.37 |         0    |    15861
        2  |  3:31.37 |  2:48.11 |     15862    |    28472
        3  |  6:19.48 |  4:31.69 |     28473    |    48866
        4  | 10:51.42 |  4:09.53 |     48867    |    67594
        5  | 15:01.20 |  3:16.01 |     67595    |    82295
        6  | 18:17.21 |  4:33.01 |     82296    |   102771
        7  | 22:50.22 |  2:46.41 |    102772    |   115262
        8  | 25:36.63 |  3:11.11 |    115263    |   129598
        9  | 28:47.74 |  3:50.51 |    129599    |   146899
       10  | 32:38.50 |  3:36.70 |    146900    |   163169
       11  | 36:15.45 |  5:12.67 |    163170    |   186636
Track  1
     Filename L:\MUSIC\MOTOR - Man Made Machine (2012) [FLAC]\1-01. MOTOR - Messed Up.wav
     Pre-gap length  0:00:02.00
     Peak level 89.6 %
     Extraction speed 2.0 X
     Track quality 99.9 %
     Test CRC E0A00B17
     Copy CRC E0A00B17
     Track not present in AccurateRip database
     Copy OK
Track  2
     Filename L:\MUSIC\MOTOR - Man Made Machine (2012) [FLAC]\1-02. MOTOR - Hyper Lust.wav
     Peak level 75.8 %
     Extraction speed 2.4 X
     Track quality 100.0 %
     Test CRC EB195A00
     Copy CRC EB195A00
     Track not present in AccurateRip database
     Copy OK
Track  3
     Filename L:\MUSIC\MOTOR - Man Made Machine (2012) [FLAC]\1-03. MOTOR - Man Made Machine.wav
     Peak level 73.2 %
     Extraction speed 2.5 X
     Track quality 99.9 %
     Test CRC FCB8C06D
     Copy CRC FCB8C06D
     Track not present in AccurateRip database
     Copy OK
Track  4
     Filename L:\MUSIC\MOTOR - Man Made Machine (2012) [FLAC]\1-04. MOTOR - Control.wav
     Peak level 73.8 %
     Extraction speed 3.0 X
     Track quality 100.0 %
     Test CRC B7715C99
     Copy CRC B7715C99
     Track not present in AccurateRip database
     Copy OK
Track  5
     Filename L:\MUSIC\MOTOR - Man Made Machine (2012) [FLAC]\1-05. MOTOR - Pleasure In Heaven.wav
     Peak level 78.6 %
     Extraction speed 3.1 X
     Track quality 100.0 %
     Test CRC F2EDC1A3
     Copy CRC F2EDC1A3
     Track not present in AccurateRip database
     Copy OK
Track  6
     Filename L:\MUSIC\MOTOR - Man Made Machine (2012) [FLAC]\1-06. MOTOR - Automne.wav
     Peak level 60.1 %
     Extraction speed 3.4 X
     Track quality 100.0 %
     Test CRC EDD2D7BF
     Copy CRC EDD2D7BF
     Track not present in AccurateRip database
     Copy OK
Track  7
     Filename L:\MUSIC\MOTOR - Man Made Machine (2012) [FLAC]\1-07. MOTOR - Autographic.wav
     Peak level 100.0 %
     Extraction speed 3.3 X
     Track quality 100.0 %
     Test CRC 62F41EE3
     Copy CRC 62F41EE3
     Track not present in AccurateRip database
     Copy OK
Track  8
     Filename L:\MUSIC\MOTOR - Man Made Machine (2012) [FLAC]\1-08. MOTOR - The Knife.wav
     Peak level 70.8 %
     Extraction speed 3.5 X
     Track quality 100.0 %
     Test CRC 778781EA
     Copy CRC 778781EA
     Track not present in AccurateRip database
     Copy OK
Track  9
     Filename L:\MUSIC\MOTOR - Man Made Machine (2012) [FLAC]\1-09. MOTOR - Hello.wav
     Peak level 71.6 %
     Extraction speed 3.8 X
     Track quality 100.0 %
     Test CRC F317E2A6
     Copy CRC F317E2A6
     Track not present in AccurateRip database
     Copy OK
Track 10
     Filename L:\MUSIC\MOTOR - Man Made Machine (2012) [FLAC]\1-10. MOTOR - In The Dark.wav
     Peak level 93.5 %
     Extraction speed 4.0 X
     Track quality 100.0 %
     Test CRC 0465E137
     Copy CRC 0465E137
     Track not present in AccurateRip database
     Copy OK
Track 11
     Filename L:\MUSIC\MOTOR - Man Made Machine (2012) [FLAC]\1-11. MOTOR - Between The Night.wav
     Peak level 77.7 %
     Extraction speed 4.3 X
     Track quality 100.0 %
     Test CRC 1053E8C3
     Copy CRC 1053E8C3
     Track not present in AccurateRip database
     Copy OK
None of the tracks are present in the AccurateRip database
No errors occurred
End of status report
---- CUETools DB Plugin V2.1.3
[CTDB TOCID: MXMQqYEKYLnwUt5irCdFRMivx_c-] found, Submit result: MXMQqYEKYLnwUt5irCdFRMivx_c- has been confirmed
[96495233] (1/1) Accurately ripped
==== Log checksum ED83EAD14827CEA3E40A19C1D92A1AFF5F6D59E8B190EAE1950E248D7085BA54 ====
Код:
REM GENRE "EBM, Techno, Electro"
REM DATE 2012
REM DISCID 9309B80B
REM COMMENT "ExactAudioCopy v1.0b3"
PERFORMER "MOTOR"
TITLE "Man Made Machine"
FILE "1-01. MOTOR - Messed Up.wav" WAVE
  TRACK 01 AUDIO
    TITLE "Messed Up"
    PERFORMER "MOTOR"
    ISRC DE0051200001
    INDEX 01 00:00:00
FILE "1-02. MOTOR - Hyper Lust.wav" WAVE
  TRACK 02 AUDIO
    TITLE "Hyper Lust"
    PERFORMER "MOTOR"
    ISRC DE0051200002
    INDEX 01 00:00:00
FILE "1-03. MOTOR - Man Made Machine.wav" WAVE
  TRACK 03 AUDIO
    TITLE "Man Made Machine"
    PERFORMER "MOTOR"
    ISRC DE0051200003
    INDEX 01 00:00:00
FILE "1-04. MOTOR - Control.wav" WAVE
  TRACK 04 AUDIO
    TITLE "Control"
    PERFORMER "MOTOR"
    ISRC DE0051200004
    INDEX 01 00:00:00
FILE "1-05. MOTOR - Pleasure In Heaven.wav" WAVE
  TRACK 05 AUDIO
    TITLE "Pleasure In Heaven"
    PERFORMER "MOTOR"
    ISRC DE0051200005
    INDEX 01 00:00:00
FILE "1-06. MOTOR - Automne.wav" WAVE
  TRACK 06 AUDIO
    TITLE "Automne"
    PERFORMER "MOTOR"
    ISRC DE0051200006
    INDEX 01 00:00:00
FILE "1-07. MOTOR - Autographic.wav" WAVE
  TRACK 07 AUDIO
    TITLE "Autographic"
    PERFORMER "MOTOR"
    ISRC DE0051200007
    INDEX 01 00:00:00
FILE "1-08. MOTOR - The Knife.wav" WAVE
  TRACK 08 AUDIO
    TITLE "The Knife"
    PERFORMER "MOTOR"
    ISRC DE0051200008
    INDEX 01 00:00:00
FILE "1-09. MOTOR - Hello.wav" WAVE
  TRACK 09 AUDIO
    TITLE "Hello"
    PERFORMER "MOTOR"
    ISRC DE0051200009
    INDEX 01 00:00:00
FILE "1-10. MOTOR - In The Dark.wav" WAVE
  TRACK 10 AUDIO
    TITLE "In The Dark"
    PERFORMER "MOTOR"
    ISRC DE0051200010
    INDEX 01 00:00:00
FILE "1-11. MOTOR - Between The Night.wav" WAVE
  TRACK 11 AUDIO
    TITLE "Between The Night"
    PERFORMER "MOTOR"
    ISRC DE0051200011
    INDEX 01 00:00:00
Код:
AUDIOCHECKER v2.0 beta (build 457) - by Dester - opdester@freemail.hu
~~~~~~~~~~~~~~~~~~~~~~~~~~~~~~~~~~
-=== DO NOT EDIT THIS FILE! ===-
Path: ...\MOTOR - Man Made Machine (2012) [FLAC]
01 -=- 1-01. MOTOR - Messed Up.flac -=- MPEG (95%)
02 -=- 1-02. MOTOR - Hyper Lust.flac -=- MPEG (95%)
03 -=- 1-03. MOTOR - Man Made Machine.flac -=- CDDA (100%)
04 -=- 1-04. MOTOR - Control.flac -=- CDDA (100%)
05 -=- 1-05. MOTOR - Pleasure In Heaven.flac -=- CDDA (100%)
06 -=- 1-06. MOTOR - Automne.flac -=- CDDA (100%)
07 -=- 1-07. MOTOR - Autographic.flac -=- CDDA (100%)
08 -=- 1-08. MOTOR - The Knife.flac -=- MPEG (95%)
09 -=- 1-09. MOTOR - Hello.flac -=- CDDA (100%)
10 -=- 1-10. MOTOR - In The Dark.flac -=- CDDA (100%)
11 -=- 1-11. MOTOR - Between The Night.flac -=- CDDA (100%)
Summary 74,09% CDDA
144309156
Прошу обратить внимание на то, что весь материал, представленный выше, предназначен исключительно для ознакомления!
Приобретайте, пожалуйста, легальные диски, которые вне всякого сомнения станут достойным украшением вашей коллекции!

Правила, инструкции, FAQ!!!
Торрент  Добавлен [26 июн 2020, 17:13] Скачать торрент Магнет ссылка
Скачать торрент
[ Размер 12.57 КБ / Просмотров 3 ]

Статус
Проверен 
 
Размер  278.79 МБ
Приватный: Нет (DHT включён)
.torrent скачан  0
 


     Отправить личное сообщение
   
Страница 1 из 1
Показать сообщения за:  Поле сортировки  
Начать новую тему Ответить на тему


Сейчас этот форум просматривают: нет зарегистрированных пользователей и гости: 0


Вы не можете начинать темы
Вы не можете отвечать на сообщения
Вы не можете редактировать свои сообщения
Вы не можете удалять свои сообщения
Вы не можете добавлять вложения

Перейти:  
cron