Начать новую тему Ответить на тему
Статистика раздачи
Размер: 434.57 МБ | Добавлен: 26 июн 2020, 17:47 | Скачали: 0
Сидеров: 0  [0 байт/сек]    Личеров: 0  [0 байт/сек]
Пред. тема | След. тема 

Автор
Сообщение

СообщениеДобавлено: 26 июн 2020, 17:47 

Ответить с цитатой 

Godhead: Non-Stop Ride
Жанр: Electronic, EBM, Techno, Industrial
Носитель: CD
Страна-производитель диска (релиза): U.S.
Год издания: 2004
Издатель (лейбл): Cleopatra
Номер по каталогу: CLP 1362-2
Аудиокодек: FLAC (*.flac)
Тип рипа: tracks+.cue
Битрейт аудио: lossless
Продолжительность: 01:00:39
Источник (релизер): what.cd, ainigma9
Наличие сканов в содержимом раздачи: нет
Треклист:
1. Funker Vogt - Narayan
2. Zeromancer - Doctor Online
3. Haujobb - Smack My Bitch Up
4. Slick Idiot - It Won't Do
5. X-Marks the Pedwalk - I See You
6. VNV Nation - DSMO
7. Pig - Rope
8. Pigface - Blow You Away (Get the Fuck Away from Me)
9. Ogre - Borderline
10. The Damned - Shadow to Fall (Leather Strip Mix)
11. Spahn Ranch - Vortex
12. Sigue Sigue Sputnik - Virus
13. Fear Cult - Girls and Boys
14. Razed in Black - Visions
15. Die Krupps - Eggshell
16. Pigface - The Horse You Rode In On
17. Godhead - Bela Lugosi's Dead (Bauhaus Cover)
18. Godhead - Fascination Street (Cure Cover)
19. Godhead - The Corrosion
Код:
X Lossless Decoder version 20121027 (142.1)
XLD extraction logfile from 2012-11-07 16:05:17 -0500
Various Artists / Non-Stop Ride
Used drive : MATSHITA DVD-R   UJ-868 (revision KB19)
Ripper mode             : CDParanoia III 10.2
Disable audio cache     : OK for the drive with a cache less than 2750KiB
Make use of C2 pointers : NO
Read offset correction  : 102
Max retry count         : 100
Gap status              : Analyzed, Appended
TOC of the extracted CD
     Track |   Start  |  Length  | Start sector | End sector
    ---------------------------------------------------------
        1  | 00:00:00 | 02:58:72 |         0    |    13421
        2  | 02:58:72 | 01:45:22 |     13422    |    21318
        3  | 04:44:19 | 03:25:41 |     21319    |    36734
        4  | 08:09:60 | 02:23:21 |     36735    |    47480
        5  | 10:33:06 | 03:04:50 |     47481    |    61330
        6  | 13:37:56 | 05:43:33 |     61331    |    87088
        7  | 19:21:14 | 01:16:74 |     87089    |    92862
        8  | 20:38:13 | 02:18:04 |     92863    |   103216
        9  | 22:56:17 | 00:48:38 |    103217    |   106854
       10  | 23:44:55 | 02:40:65 |    106855    |   118919
       11  | 26:25:45 | 02:31:71 |    118920    |   130315
       12  | 28:57:41 | 01:29:27 |    130316    |   137017
       13  | 30:26:68 | 02:47:73 |    137018    |   149615
       14  | 33:14:66 | 05:32:02 |    149616    |   174517
       15  | 38:46:68 | 03:14:12 |    174518    |   189079
       16  | 42:01:05 | 02:02:24 |    189080    |   198253
       17  | 44:03:29 | 03:40:39 |    198254    |   214792
       18  | 47:43:68 | 05:27:25 |    214793    |   239342
       19  | 53:11:18 | 07:27:63 |    239343    |   272930
AccurateRip Summary (DiscID: 00248bdd-02042798-220e3713)
    Track 01 : NG (total 1 submission)
    Track 02 : OK (v1, confidence 1/1)
    Track 03 : OK (v1, confidence 1/1)
    Track 04 : OK (v1, confidence 1/1)
    Track 05 : OK (v1, confidence 1/1)
    Track 06 : OK (v1, confidence 1/1)
    Track 07 : OK (v1, confidence 1/1)
    Track 08 : OK (v1, confidence 1/1)
    Track 09 : OK (v1, confidence 1/1)
    Track 10 : OK (v1, confidence 1/1)
    Track 11 : OK (v1, confidence 1/1)
    Track 12 : OK (v1, confidence 1/1)
    Track 13 : OK (v1, confidence 1/1)
    Track 14 : OK (v1, confidence 1/1)
    Track 15 : OK (v1, confidence 1/1)
    Track 16 : OK (v1, confidence 1/1)
    Track 17 : OK (v1, confidence 1/1)
    Track 18 : OK (v1, confidence 1/1)
    Track 19 : OK (v1, confidence 1/1)
        ->18 tracks accurately ripped, 1 track not
All Tracks
    Album gain               : -8.54 dB
    Peak                     : 1.000000
    Statistics
        Read error                           : 0
        Skipped (treated as error)           : 0
        Edge jitter error (maybe fixed)      : 2
        Atom jitter error (maybe fixed)      : 12
        Drift error (maybe fixed)            : 0
        Dropped bytes error (maybe fixed)    : 0
        Duplicated bytes error (maybe fixed) : 2
Track 01
    Filename : /Users/ainigma9/Desktop/Godhead_NonStopRide[FLAC]/01 Funker Vogt - Narayan.flac
    Pre-gap length : 00:02:00
    Track gain               : -8.28 dB
    Peak                     : 1.000000
    CRC32 hash (test run)    : 65C13E69
    CRC32 hash               : 950F0A30
        ->Rip may not be accurate.
    CRC32 hash (skip zero)   : AE6FEAC1
    AccurateRip v1 signature : D5BABE04
    AccurateRip v2 signature : F9FEC3A7
        ->Rip may not be accurate (total 1 submission).
    Statistics
        Read error                           : 0
        Skipped (treated as error)           : 0
        Edge jitter error (maybe fixed)      : 0
        Atom jitter error (maybe fixed)      : 12
        Drift error (maybe fixed)            : 0
        Dropped bytes error (maybe fixed)    : 0
        Duplicated bytes error (maybe fixed) : 0
        Inconsistency in error sectors       : 0
Track 02
    Filename : /Users/ainigma9/Desktop/Godhead_NonStopRide[FLAC]/02 Zeromancer - Doctor Online.flac
    Track gain               : -7.73 dB
    Peak                     : 0.944092
    CRC32 hash (test run)    : 907F517C
    CRC32 hash               : 907F517C
    CRC32 hash (skip zero)   : B971241B
    AccurateRip v1 signature : E6F079A5
    AccurateRip v2 signature : E025077B
        ->Accurately ripped (v1, confidence 1/1)
    Statistics
        Read error                           : 0
        Skipped (treated as error)           : 0
        Edge jitter error (maybe fixed)      : 0
        Atom jitter error (maybe fixed)      : 0
        Drift error (maybe fixed)            : 0
        Dropped bytes error (maybe fixed)    : 0
        Duplicated bytes error (maybe fixed) : 0
        Inconsistency in error sectors       : 0
Track 03
    Filename : /Users/ainigma9/Desktop/Godhead_NonStopRide[FLAC]/03 Haujobb - Smack My Bitch Up.flac
    Track gain               : -9.26 dB
    Peak                     : 1.000000
    CRC32 hash (test run)    : 4C97B591
    CRC32 hash               : 4C97B591
    CRC32 hash (skip zero)   : 486DDA51
    AccurateRip v1 signature : 753B8085
    AccurateRip v2 signature : 46C3BAAC
        ->Accurately ripped (v1, confidence 1/1)
    Statistics
        Read error                           : 0
        Skipped (treated as error)           : 0
        Edge jitter error (maybe fixed)      : 0
        Atom jitter error (maybe fixed)      : 0
        Drift error (maybe fixed)            : 0
        Dropped bytes error (maybe fixed)    : 0
        Duplicated bytes error (maybe fixed) : 0
        Inconsistency in error sectors       : 0
Track 04
    Filename : /Users/ainigma9/Desktop/Godhead_NonStopRide[FLAC]/04 Slick Idiot - It Won't Do.flac
    Track gain               : -5.13 dB
    Peak                     : 1.000000
    CRC32 hash (test run)    : 693AE550
    CRC32 hash               : 693AE550
    CRC32 hash (skip zero)   : 32C24152
    AccurateRip v1 signature : 3E51A59E
    AccurateRip v2 signature : 98A6F505
        ->Accurately ripped (v1, confidence 1/1)
    Statistics
        Read error                           : 0
        Skipped (treated as error)           : 0
        Edge jitter error (maybe fixed)      : 1
        Atom jitter error (maybe fixed)      : 0
        Drift error (maybe fixed)            : 0
        Dropped bytes error (maybe fixed)    : 0
        Duplicated bytes error (maybe fixed) : 1
        Inconsistency in error sectors       : 0
Track 05
    Filename : /Users/ainigma9/Desktop/Godhead_NonStopRide[FLAC]/05 X-Marks The Pedwalk - I See You.flac
    Track gain               : -6.62 dB
    Peak                     : 1.000000
    CRC32 hash (test run)    : E05EA94D
    CRC32 hash               : E05EA94D
    CRC32 hash (skip zero)   : B5171289
    AccurateRip v1 signature : 130DBF3F
    AccurateRip v2 signature : 6B824A7D
        ->Accurately ripped (v1, confidence 1/1)
    Statistics
        Read error                           : 0
        Skipped (treated as error)           : 0
        Edge jitter error (maybe fixed)      : 1
        Atom jitter error (maybe fixed)      : 0
        Drift error (maybe fixed)            : 0
        Dropped bytes error (maybe fixed)    : 0
        Duplicated bytes error (maybe fixed) : 1
        Inconsistency in error sectors       : 0
Track 06
    Filename : /Users/ainigma9/Desktop/Godhead_NonStopRide[FLAC]/06 VNV Nation - DSMO.flac
    Track gain               : -10.37 dB
    Peak                     : 1.000000
    CRC32 hash (test run)    : 8FFF8B73
    CRC32 hash               : 8FFF8B73
    CRC32 hash (skip zero)   : F62E7F77
    AccurateRip v1 signature : 1ACC41F3
    AccurateRip v2 signature : FCDABB72
        ->Accurately ripped (v1, confidence 1/1)
    Statistics
        Read error                           : 0
        Skipped (treated as error)           : 0
        Edge jitter error (maybe fixed)      : 0
        Atom jitter error (maybe fixed)      : 0
        Drift error (maybe fixed)            : 0
        Dropped bytes error (maybe fixed)    : 0
        Duplicated bytes error (maybe fixed) : 0
        Inconsistency in error sectors       : 0
Track 07
    Filename : /Users/ainigma9/Desktop/Godhead_NonStopRide[FLAC]/07 Pig - Rope.flac
    Track gain               : -8.75 dB
    Peak                     : 1.000000
    CRC32 hash (test run)    : CC7AAD04
    CRC32 hash               : CC7AAD04
    CRC32 hash (skip zero)   : 4648CF10
    AccurateRip v1 signature : 447580DD
    AccurateRip v2 signature : 6D96B89D
        ->Accurately ripped (v1, confidence 1/1)
    Statistics
        Read error                           : 0
        Skipped (treated as error)           : 0
        Edge jitter error (maybe fixed)      : 0
        Atom jitter error (maybe fixed)      : 0
        Drift error (maybe fixed)            : 0
        Dropped bytes error (maybe fixed)    : 0
        Duplicated bytes error (maybe fixed) : 0
        Inconsistency in error sectors       : 0
Track 08
    Filename : /Users/ainigma9/Desktop/Godhead_NonStopRide[FLAC]/08 Pigface - Blow You Away (Get The Fuck Away From Me).flac
    Track gain               : -10.28 dB
    Peak                     : 1.000000
    CRC32 hash (test run)    : A85F394E
    CRC32 hash               : A85F394E
    CRC32 hash (skip zero)   : 731E2DA3
    AccurateRip v1 signature : 58CB5974
    AccurateRip v2 signature : FB461CBD
        ->Accurately ripped (v1, confidence 1/1)
    Statistics
        Read error                           : 0
        Skipped (treated as error)           : 0
        Edge jitter error (maybe fixed)      : 0
        Atom jitter error (maybe fixed)      : 0
        Drift error (maybe fixed)            : 0
        Dropped bytes error (maybe fixed)    : 0
        Duplicated bytes error (maybe fixed) : 0
        Inconsistency in error sectors       : 0
Track 09
    Filename : /Users/ainigma9/Desktop/Godhead_NonStopRide[FLAC]/09 Ogre - Borderline.flac
    Track gain               : -5.64 dB
    Peak                     : 1.000000
    CRC32 hash (test run)    : D5BC67FF
    CRC32 hash               : D5BC67FF
    CRC32 hash (skip zero)   : CC20C229
    AccurateRip v1 signature : C6229F96
    AccurateRip v2 signature : 714BE294
        ->Accurately ripped (v1, confidence 1/1)
    Statistics
        Read error                           : 0
        Skipped (treated as error)           : 0
        Edge jitter error (maybe fixed)      : 0
        Atom jitter error (maybe fixed)      : 0
        Drift error (maybe fixed)            : 0
        Dropped bytes error (maybe fixed)    : 0
        Duplicated bytes error (maybe fixed) : 0
        Inconsistency in error sectors       : 0
Track 10
    Filename : /Users/ainigma9/Desktop/Godhead_NonStopRide[FLAC]/10 The Damned - Shadow To Fall (Leather Strip Mix).flac
    Track gain               : -9.49 dB
    Peak                     : 1.000000
    CRC32 hash (test run)    : 13919D47
    CRC32 hash               : 13919D47
    CRC32 hash (skip zero)   : 8BEC76F7
    AccurateRip v1 signature : 48C9A6C6
    AccurateRip v2 signature : 018E6198
        ->Accurately ripped (v1, confidence 1/1)
    Statistics
        Read error                           : 0
        Skipped (treated as error)           : 0
        Edge jitter error (maybe fixed)      : 0
        Atom jitter error (maybe fixed)      : 0
        Drift error (maybe fixed)            : 0
        Dropped bytes error (maybe fixed)    : 0
        Duplicated bytes error (maybe fixed) : 0
        Inconsistency in error sectors       : 0
Track 11
    Filename : /Users/ainigma9/Desktop/Godhead_NonStopRide[FLAC]/11 Spahn Ranch - Vortex.flac
    Track gain               : -4.48 dB
    Peak                     : 1.000000
    CRC32 hash (test run)    : 6DD0189F
    CRC32 hash               : 6DD0189F
    CRC32 hash (skip zero)   : E25627FC
    AccurateRip v1 signature : 025232D0
    AccurateRip v2 signature : 5EB2B3FE
        ->Accurately ripped (v1, confidence 1/1)
    Statistics
        Read error                           : 0
        Skipped (treated as error)           : 0
        Edge jitter error (maybe fixed)      : 0
        Atom jitter error (maybe fixed)      : 0
        Drift error (maybe fixed)            : 0
        Dropped bytes error (maybe fixed)    : 0
        Duplicated bytes error (maybe fixed) : 0
        Inconsistency in error sectors       : 0
Track 12
    Filename : /Users/ainigma9/Desktop/Godhead_NonStopRide[FLAC]/12 Sigue Sigue Sputnik - Virus.flac
    Track gain               : -8.84 dB
    Peak                     : 1.000000
    CRC32 hash (test run)    : C40741C2
    CRC32 hash               : C40741C2
    CRC32 hash (skip zero)   : 470E4C34
    AccurateRip v1 signature : 1A1D809D
    AccurateRip v2 signature : 51C8583A
        ->Accurately ripped (v1, confidence 1/1)
    Statistics
        Read error                           : 0
        Skipped (treated as error)           : 0
        Edge jitter error (maybe fixed)      : 0
        Atom jitter error (maybe fixed)      : 0
        Drift error (maybe fixed)            : 0
        Dropped bytes error (maybe fixed)    : 0
        Duplicated bytes error (maybe fixed) : 0
        Inconsistency in error sectors       : 0
Track 13
    Filename : /Users/ainigma9/Desktop/Godhead_NonStopRide[FLAC]/13 Fear Cult - Girls And Boys.flac
    Track gain               : -6.74 dB
    Peak                     : 1.000000
    CRC32 hash (test run)    : 2E946544
    CRC32 hash               : 2E946544
    CRC32 hash (skip zero)   : 7F4125DD
    AccurateRip v1 signature : F86EDC0B
    AccurateRip v2 signature : B6122A59
        ->Accurately ripped (v1, confidence 1/1)
    Statistics
        Read error                           : 0
        Skipped (treated as error)           : 0
        Edge jitter error (maybe fixed)      : 0
        Atom jitter error (maybe fixed)      : 0
        Drift error (maybe fixed)            : 0
        Dropped bytes error (maybe fixed)    : 0
        Duplicated bytes error (maybe fixed) : 0
        Inconsistency in error sectors       : 0
Track 14
    Filename : /Users/ainigma9/Desktop/Godhead_NonStopRide[FLAC]/14 Razed In Black - Visions.flac
    Track gain               : -6.60 dB
    Peak                     : 1.000000
    CRC32 hash (test run)    : 6B4E8658
    CRC32 hash               : 6B4E8658
    CRC32 hash (skip zero)   : D4ECAC62
    AccurateRip v1 signature : 55003020
    AccurateRip v2 signature : 40343207
        ->Accurately ripped (v1, confidence 1/1)
    Statistics
        Read error                           : 0
        Skipped (treated as error)           : 0
        Edge jitter error (maybe fixed)      : 0
        Atom jitter error (maybe fixed)      : 0
        Drift error (maybe fixed)            : 0
        Dropped bytes error (maybe fixed)    : 0
        Duplicated bytes error (maybe fixed) : 0
        Inconsistency in error sectors       : 0
Track 15
    Filename : /Users/ainigma9/Desktop/Godhead_NonStopRide[FLAC]/15 Die Krupps - Eggshell.flac
    Track gain               : -7.55 dB
    Peak                     : 1.000000
    CRC32 hash (test run)    : 16DC25D7
    CRC32 hash               : 16DC25D7
    CRC32 hash (skip zero)   : BF23CAA3
    AccurateRip v1 signature : 9CE5050E
    AccurateRip v2 signature : A957B711
        ->Accurately ripped (v1, confidence 1/1)
    Statistics
        Read error                           : 0
        Skipped (treated as error)           : 0
        Edge jitter error (maybe fixed)      : 0
        Atom jitter error (maybe fixed)      : 0
        Drift error (maybe fixed)            : 0
        Dropped bytes error (maybe fixed)    : 0
        Duplicated bytes error (maybe fixed) : 0
        Inconsistency in error sectors       : 0
Track 16
    Filename : /Users/ainigma9/Desktop/Godhead_NonStopRide[FLAC]/16 Pigface - The Horse You Rode In On.flac
    Track gain               : -7.43 dB
    Peak                     : 0.966034
    CRC32 hash (test run)    : F39ED473
    CRC32 hash               : F39ED473
    CRC32 hash (skip zero)   : A44B3618
    AccurateRip v1 signature : 17022986
    AccurateRip v2 signature : C8BDD706
        ->Accurately ripped (v1, confidence 1/1)
    Statistics
        Read error                           : 0
        Skipped (treated as error)           : 0
        Edge jitter error (maybe fixed)      : 0
        Atom jitter error (maybe fixed)      : 0
        Drift error (maybe fixed)            : 0
        Dropped bytes error (maybe fixed)    : 0
        Duplicated bytes error (maybe fixed) : 0
        Inconsistency in error sectors       : 0
Track 17
    Filename : /Users/ainigma9/Desktop/Godhead_NonStopRide[FLAC]/17 Godhead - Bela Lugosi's Dead (Bauhaus Cover).flac
    Track gain               : -7.28 dB
    Peak                     : 1.000000
    CRC32 hash (test run)    : 255D0482
    CRC32 hash               : 255D0482
    CRC32 hash (skip zero)   : 7638F826
    AccurateRip v1 signature : 45C54E1E
    AccurateRip v2 signature : 34356444
        ->Accurately ripped (v1, confidence 1/1)
    Statistics
        Read error                           : 0
        Skipped (treated as error)           : 0
        Edge jitter error (maybe fixed)      : 0
        Atom jitter error (maybe fixed)      : 0
        Drift error (maybe fixed)            : 0
        Dropped bytes error (maybe fixed)    : 0
        Duplicated bytes error (maybe fixed) : 0
        Inconsistency in error sectors       : 0
Track 18
    Filename : /Users/ainigma9/Desktop/Godhead_NonStopRide[FLAC]/18 Godhead - Fascination Street (Cure Cover).flac
    Track gain               : -7.68 dB
    Peak                     : 1.000000
    CRC32 hash (test run)    : 88D4997D
    CRC32 hash               : 88D4997D
    CRC32 hash (skip zero)   : A0AE0E6A
    AccurateRip v1 signature : 0BA5A2D4
    AccurateRip v2 signature : 68EC3F70
        ->Accurately ripped (v1, confidence 1/1)
    Statistics
        Read error                           : 0
        Skipped (treated as error)           : 0
        Edge jitter error (maybe fixed)      : 0
        Atom jitter error (maybe fixed)      : 0
        Drift error (maybe fixed)            : 0
        Dropped bytes error (maybe fixed)    : 0
        Duplicated bytes error (maybe fixed) : 0
        Inconsistency in error sectors       : 0
Track 19
    Filename : /Users/ainigma9/Desktop/Godhead_NonStopRide[FLAC]/19 Godhead - The Corrosion.flac
    Track gain               : -7.47 dB
    Peak                     : 0.999969
    CRC32 hash (test run)    : EC6AB26C
    CRC32 hash               : EC6AB26C
    CRC32 hash (skip zero)   : 364A217B
    AccurateRip v1 signature : CEC2B91D
    AccurateRip v2 signature : 58F81A7D
        ->Accurately ripped (v1, confidence 1/1)
    Statistics
        Read error                           : 0
        Skipped (treated as error)           : 0
        Edge jitter error (maybe fixed)      : 0
        Atom jitter error (maybe fixed)      : 0
        Drift error (maybe fixed)            : 0
        Dropped bytes error (maybe fixed)    : 0
        Duplicated bytes error (maybe fixed) : 0
        Inconsistency in error sectors       : 0
Some inconsistencies found
End of status report
Код:
TITLE "Non-Stop Ride"
PERFORMER "Various Artists"
REM DATE "2004"
REM DISCID 220E3713
FILE "01. Funker Vogt - Narayan.flac" WAVE
  TRACK 01 AUDIO
    TITLE "Narayan"
    PERFORMER "Funker Vogt"
    INDEX 01 00:00:00
FILE "02. Zeromancer - Doctor Online.flac" WAVE
  TRACK 02 AUDIO
    TITLE "Doctor Online"
    PERFORMER "Zeromancer"
    INDEX 01 00:00:00
FILE "03. Haujobb - Smack My Bitch Up.flac" WAVE
  TRACK 03 AUDIO
    TITLE "Smack My Bitch Up"
    PERFORMER "Haujobb"
    INDEX 01 00:00:00
FILE "04. Slick Idiot - It Won't Do.flac" WAVE
  TRACK 04 AUDIO
    TITLE "It Won't Do"
    PERFORMER "Slick Idiot"
    INDEX 01 00:00:00
FILE "05. X-Marks the Pedwalk - I See You.flac" WAVE
  TRACK 05 AUDIO
    TITLE "I See You"
    PERFORMER "X-Marks the Pedwalk"
    INDEX 01 00:00:00
FILE "06. VNV Nation - DSMO.flac" WAVE
  TRACK 06 AUDIO
    TITLE "DSMO"
    PERFORMER "VNV Nation"
    INDEX 01 00:00:00
FILE "07. Pig - Rope.flac" WAVE
  TRACK 07 AUDIO
    TITLE "Rope"
    PERFORMER "Pig"
    INDEX 01 00:00:00
FILE "08. Pigface - Blow You Away (Get the Fuck Away from Me).flac" WAVE
  TRACK 08 AUDIO
    TITLE "Blow You Away (Get the Fuck Away from Me)"
    PERFORMER "Pigface"
    INDEX 01 00:00:00
FILE "09. Ogre - Borderline.flac" WAVE
  TRACK 09 AUDIO
    TITLE "Borderline"
    PERFORMER "Ogre"
    SONGWRITER "Reggie Lucas"
    INDEX 01 00:00:00
FILE "10. The Damned - Shadow to Fall (Leather Strip Mix).flac" WAVE
  TRACK 10 AUDIO
    TITLE "Shadow to Fall (Leather Strip Mix)"
    PERFORMER "The Damned"
    INDEX 01 00:00:00
FILE "11. Spahn Ranch - Vortex.flac" WAVE
  TRACK 11 AUDIO
    TITLE "Vortex"
    PERFORMER "Spahn Ranch"
    INDEX 01 00:00:00
FILE "12. Sigue Sigue Sputnik - Virus.flac" WAVE
  TRACK 12 AUDIO
    TITLE "Virus"
    PERFORMER "Sigue Sigue Sputnik"
    INDEX 01 00:00:00
FILE "13. Fear Cult - Girls and Boys.flac" WAVE
  TRACK 13 AUDIO
    TITLE "Girls and Boys"
    PERFORMER "Fear Cult"
    INDEX 01 00:00:00
FILE "14. Razed in Black - Visions.flac" WAVE
  TRACK 14 AUDIO
    TITLE "Visions"
    PERFORMER "Razed in Black"
    INDEX 01 00:00:00
FILE "15. Die Krupps - Eggshell.flac" WAVE
  TRACK 15 AUDIO
    TITLE "Eggshell"
    PERFORMER "Die Krupps"
    INDEX 01 00:00:00
FILE "16. Pigface - The Horse You Rode in On.flac" WAVE
  TRACK 16 AUDIO
    TITLE "The Horse You Rode in On"
    PERFORMER "Pigface"
    INDEX 01 00:00:00
FILE "17. Godhead - Bela Lugosi's Dead (Bauhaus Cover).flac" WAVE
  TRACK 17 AUDIO
    TITLE "Bela Lugosi's Dead (Bauhaus Cover)"
    PERFORMER "Godhead"
    INDEX 01 00:00:00
FILE "18. Godhead - Fascination Street (Cure Cover).flac" WAVE
  TRACK 18 AUDIO
    TITLE "Fascination Street (Cure Cover)"
    PERFORMER "Godhead"
    INDEX 01 00:00:00
FILE "19. Godhead - The Corrosion.flac" WAVE
  TRACK 19 AUDIO
    TITLE "The Corrosion"
    PERFORMER "Godhead"
    INDEX 01 00:00:00
Правила, инструкции, FAQ!!!
Торрент  Добавлен [26 июн 2020, 17:47] Скачать торрент Магнет ссылка
Скачать торрент
[ Размер 18.89 КБ / Просмотров 9 ]

Статус
Проверен 
 
Размер  434.57 МБ
Приватный: Нет (DHT включён)
.torrent скачан  0
 


     Отправить личное сообщение
   
Страница 1 из 1
Показать сообщения за:  Поле сортировки  
Начать новую тему Ответить на тему


Сейчас этот форум просматривают: нет зарегистрированных пользователей и гости: 0


Вы не можете начинать темы
Вы не можете отвечать на сообщения
Вы не можете редактировать свои сообщения
Вы не можете удалять свои сообщения
Вы не можете добавлять вложения

Перейти:  
cron