Начать новую тему Ответить на тему
Статистика раздачи
Размер: 449.35 МБ | Добавлен: 26 июн 2020, 17:06 | Скачали: 0
Сидеров: 0  [0 байт/сек]    Личеров: 0  [0 байт/сек]
Пред. тема | След. тема 

Автор
Сообщение

СообщениеДобавлено: 26 июн 2020, 17:06 

Ответить с цитатой 

Lost Image / Electrocution
Жанр: Electronic, EBM
Носитель: CD
Страна-производитель диска: Germany
Год издания: 1992
Издатель (лейбл): KM-Musik
Номер по каталогу: T.O.115
Аудиокодек: FLAC (*.flac)
Тип рипа: tracks+.cue
Битрейт аудио: lossless
Источник (релизер): CD
Наличие сканов в содержимом раздачи: нет
Треклист:
01 Stop The War 05:53
02 Move Your Body 04:35
03 Lost Image 05:12
04 Crying Corpse 05:50
05 Dance Or Die 3:53
06 I Like To Win 06:06
07 Twilight Zone 06:49
08 Desperate Tries 04:50
09 Say No 05:08
10 Kingdom 04:54
11 Your Belief 04:54
12 I Like To Win (Excited Mix) 06:46
Код:
Exact Audio Copy V1.0 beta 3 from 29. August 2011
EAC extraction logfile from 3. July 2014, 16:08
Lost Image / Electrocution
Used drive  : MATSHITADVD-RAM UJ8A0AS   Adapter: 1  ID: 0
Read mode               : Secure
Utilize accurate stream : Yes
Defeat audio cache      : Yes
Make use of C2 pointers : No
Read offset correction                      : 102
Overread into Lead-In and Lead-Out          : No
Fill up missing offset samples with silence : Yes
Delete leading and trailing silent blocks   : No
Null samples used in CRC calculations       : Yes
Used interface                              : Native Win32 interface for Win NT & 2000
Gap handling                                : Appended to previous track
Used output format : Internal WAV Routines
Sample format      : 44.100 Hz; 16 Bit; Stereo
TOC of the extracted CD
     Track |   Start  |  Length  | Start sector | End sector
    ---------------------------------------------------------
        1  |  0:00.33 |  5:53.70 |        33    |    26577
        2  |  5:54.28 |  4:35.40 |     26578    |    47242
        3  | 10:29.68 |  5:12.05 |     47243    |    70647
        4  | 15:41.73 |  5:50.27 |     70648    |    96924
        5  | 21:32.25 |  3:53.10 |     96925    |   114409
        6  | 25:25.35 |  6:06.15 |    114410    |   141874
        7  | 31:31.50 |  6:49.30 |    141875    |   172579
        8  | 38:21.05 |  4:50.28 |    172580    |   194357
        9  | 43:11.33 |  5:08.12 |    194358    |   217469
       10  | 48:19.45 |  4:54.05 |    217470    |   239524
       11  | 53:13.50 |  4:54.40 |    239525    |   261614
       12  | 58:08.15 |  6:46.13 |    261615    |   292077
Track  1
     Filename C:\Users\VAIO\Downloads\Lost Image - Electrocution (1992)\01 Stop The War.wav
     Pre-gap length  0:00:02.33
     Peak level 93.5 %
     Extraction speed 1.6 X
     Track quality 100.0 %
     Test CRC 2A96B4A1
     Copy CRC 2A96B4A1
     Track not present in AccurateRip database
     Copy OK
Track  2
     Filename C:\Users\VAIO\Downloads\Lost Image - Electrocution (1992)\02 Move Your Body.wav
     Pre-gap length  0:00:05.00
     Peak level 100.0 %
     Extraction speed 1.6 X
     Track quality 99.9 %
     Test CRC 92C231E2
     Copy CRC 92C231E2
     Track not present in AccurateRip database
     Copy OK
Track  3
     Filename C:\Users\VAIO\Downloads\Lost Image - Electrocution (1992)\03 Lost Image.wav
     Pre-gap length  0:00:05.28
     Peak level 82.6 %
     Extraction speed 1.8 X
     Track quality 99.9 %
     Test CRC 3F974AB9
     Copy CRC 3F974AB9
     Track not present in AccurateRip database
     Copy OK
Track  4
     Filename C:\Users\VAIO\Downloads\Lost Image - Electrocution (1992)\04 Crying Corpse.wav
     Pre-gap length  0:00:08.65
     Peak level 81.6 %
     Extraction speed 2.2 X
     Track quality 100.0 %
     Test CRC 916FF4CF
     Copy CRC 916FF4CF
     Track not present in AccurateRip database
     Copy OK
Track  5
     Filename C:\Users\VAIO\Downloads\Lost Image - Electrocution (1992)\05 Dance Or Die.wav
     Pre-gap length  0:00:04.55
     Peak level 91.6 %
     Extraction speed 2.2 X
     Track quality 100.0 %
     Test CRC 749E983C
     Copy CRC 749E983C
     Track not present in AccurateRip database
     Copy OK
Track  6
     Filename C:\Users\VAIO\Downloads\Lost Image - Electrocution (1992)\06 I Like To Win.wav
     Pre-gap length  0:00:04.52
     Peak level 100.0 %
     Extraction speed 2.3 X
     Track quality 99.9 %
     Test CRC 302C74FB
     Copy CRC 302C74FB
     Track not present in AccurateRip database
     Copy OK
Track  7
     Filename C:\Users\VAIO\Downloads\Lost Image - Electrocution (1992)\07 Twilight Zone.wav
     Pre-gap length  0:00:06.55
     Peak level 79.4 %
     Extraction speed 2.7 X
     Track quality 100.0 %
     Test CRC A0D4C85C
     Copy CRC A0D4C85C
     Track not present in AccurateRip database
     Copy OK
Track  8
     Filename C:\Users\VAIO\Downloads\Lost Image - Electrocution (1992)\08 Desperate Tries.wav
     Pre-gap length  0:00:10.62
     Peak level 100.0 %
     Extraction speed 2.7 X
     Track quality 100.0 %
     Test CRC EDE5DDA1
     Copy CRC EDE5DDA1
     Track not present in AccurateRip database
     Copy OK
Track  9
     Filename C:\Users\VAIO\Downloads\Lost Image - Electrocution (1992)\09 Say No.wav
     Pre-gap length  0:00:08.45
     Peak level 100.0 %
     Extraction speed 2.8 X
     Track quality 100.0 %
     Test CRC 195E04C2
     Copy CRC 195E04C2
     Track not present in AccurateRip database
     Copy OK
Track 10
     Filename C:\Users\VAIO\Downloads\Lost Image - Electrocution (1992)\10 Kingdom.wav
     Pre-gap length  0:00:06.15
     Peak level 100.0 %
     Extraction speed 2.9 X
     Track quality 100.0 %
     Test CRC 2BAED3A7
     Copy CRC 2BAED3A7
     Track not present in AccurateRip database
     Copy OK
Track 11
     Filename C:\Users\VAIO\Downloads\Lost Image - Electrocution (1992)\11 Your Beliefe.wav
     Pre-gap length  0:00:05.65
     Peak level 100.0 %
     Extraction speed 3.0 X
     Track quality 100.0 %
     Test CRC 0AADA225
     Copy CRC 0AADA225
     Track not present in AccurateRip database
     Copy OK
Track 12
     Filename C:\Users\VAIO\Downloads\Lost Image - Electrocution (1992)\12 I Like To Win (Excited Mix).wav
     Pre-gap length  0:00:06.45
     Peak level 100.0 %
     Extraction speed 3.3 X
     Track quality 100.0 %
     Test CRC A89509B0
     Copy CRC A89509B0
     Track not present in AccurateRip database
     Copy OK
None of the tracks are present in the AccurateRip database
No errors occurred
End of status report
==== Log checksum F58BADD8C5BCD6412DAAE5A32468CBF06EEEA2E2EFB36F66D5401E7BF67693C5 ====
Код:
REM DATE 1992
REM DISCID A70F360C
REM COMMENT "ExactAudioCopy v1.0b3"
PERFORMER "Lost Image"
TITLE "Electrocution"
FILE "Lost Image - Electrocution.wav" WAVE
  TRACK 01 AUDIO
    TITLE "Stop The War"
    PERFORMER "Lost Image"
    INDEX 00 00:00:00
    INDEX 01 00:00:33
  TRACK 02 AUDIO
    TITLE "Move Your Body"
    PERFORMER "Lost Image"
    INDEX 00 05:49:28
    INDEX 01 05:54:28
  TRACK 03 AUDIO
    TITLE "Lost Image"
    PERFORMER "Lost Image"
    INDEX 00 10:24:40
    INDEX 01 10:29:68
  TRACK 04 AUDIO
    TITLE "Crying Corpse"
    PERFORMER "Lost Image"
    INDEX 00 15:33:08
    INDEX 01 15:41:73
  TRACK 05 AUDIO
    TITLE "Dance Or Die"
    PERFORMER "Lost Image"
    INDEX 00 21:27:45
    INDEX 01 21:32:25
  TRACK 06 AUDIO
    TITLE "I Like To Win"
    PERFORMER "Lost Image"
    INDEX 00 25:20:58
    INDEX 01 25:25:35
  TRACK 07 AUDIO
    TITLE "Twilight Zone"
    PERFORMER "Lost Image"
    INDEX 00 31:24:70
    INDEX 01 31:31:50
  TRACK 08 AUDIO
    TITLE "Desperate Tries"
    PERFORMER "Lost Image"
    INDEX 00 38:10:18
    INDEX 01 38:21:05
  TRACK 09 AUDIO
    TITLE "Say No"
    PERFORMER "Lost Image"
    INDEX 00 43:02:63
    INDEX 01 43:11:33
  TRACK 10 AUDIO
    TITLE "Kingdom"
    PERFORMER "Lost Image"
    INDEX 00 48:13:30
    INDEX 01 48:19:45
  TRACK 11 AUDIO
    TITLE "Your Beliefe"
    PERFORMER "Lost Image"
    INDEX 00 53:07:60
    INDEX 01 53:13:50
  TRACK 12 AUDIO
    TITLE "I Like To Win (Excited Mix)"
    PERFORMER "Lost Image"
    INDEX 00 58:01:45
    INDEX 01 58:08:15
Код:
AUDIOCHECKER v2.0 beta (build 457) - by Dester - opdester@freemail.hu
~~~~~~~~~~~~~~~~~~~~~~~~~~~~~~~~~~
Started at: понедельник, 08. 09. 2014. - 17:30.17
12 files found
01 -===- C:\Users\VAIO\Downloads\Lost Image - Electrocution (1992)\01 Stop The War.flac
  Extracted successfully
  Conclusion: this track is CDDA with probability 99%
  Tempfile successfully deleted.
02 -===- C:\Users\VAIO\Downloads\Lost Image - Electrocution (1992)\02 Move Your Body.flac
  Extracted successfully
  Conclusion: this track is CDDA with probability 100%
  Tempfile successfully deleted.
03 -===- C:\Users\VAIO\Downloads\Lost Image - Electrocution (1992)\03 Lost Image.flac
  Extracted successfully
  Conclusion: this track is CDDA with probability 100%
  Tempfile successfully deleted.
04 -===- C:\Users\VAIO\Downloads\Lost Image - Electrocution (1992)\04 Crying Corpse.flac
  Extracted successfully
  Conclusion: this track is CDDA with probability 100%
  Tempfile successfully deleted.
05 -===- C:\Users\VAIO\Downloads\Lost Image - Electrocution (1992)\05 Dance Or Die.flac
  Extracted successfully
  Conclusion: this track is CDDA with probability 100%
  Tempfile successfully deleted.
06 -===- C:\Users\VAIO\Downloads\Lost Image - Electrocution (1992)\06 I Like To Win.flac
  Extracted successfully
  Conclusion: this track is CDDA with probability 100%
  Tempfile successfully deleted.
07 -===- C:\Users\VAIO\Downloads\Lost Image - Electrocution (1992)\07 Twilight Zone.flac
  Extracted successfully
  Conclusion: this track is CDDA with probability 100%
  Tempfile successfully deleted.
08 -===- C:\Users\VAIO\Downloads\Lost Image - Electrocution (1992)\08 Desperate Tries.flac
  Extracted successfully
  Conclusion: this track is CDDA with probability 100%
  Tempfile successfully deleted.
09 -===- C:\Users\VAIO\Downloads\Lost Image - Electrocution (1992)\09 Say No.flac
  Extracted successfully
  Conclusion: this track is CDDA with probability 99%
  Tempfile successfully deleted.
10 -===- C:\Users\VAIO\Downloads\Lost Image - Electrocution (1992)\10 Kingdom.flac
  Extracted successfully
  Conclusion: this track is CDDA with probability 100%
  Tempfile successfully deleted.
11 -===- C:\Users\VAIO\Downloads\Lost Image - Electrocution (1992)\11 Your Beliefe.flac
  Extracted successfully
  Conclusion: this track is CDDA with probability 100%
  Tempfile successfully deleted.
12 -===- C:\Users\VAIO\Downloads\Lost Image - Electrocution (1992)\12 I Like To Win (Excited Mix).flac
  Extracted successfully
  Conclusion: this track is CDDA with probability 100%
  Tempfile successfully deleted.
Finished at: понедельник, 08. 09. 2014. - 17:37.27 (operation time: 0:07.09)
Правила, инструкции, FAQ!!!
Торрент  Добавлен [26 июн 2020, 17:06] Скачать торрент Магнет ссылка
Скачать торрент
[ Размер 18.72 КБ / Просмотров 2 ]

Статус
Проверен 
 
Размер  449.35 МБ
Приватный: Нет (DHT включён)
.torrent скачан  0
 


     Отправить личное сообщение
   
Страница 1 из 1
Показать сообщения за:  Поле сортировки  
Начать новую тему Ответить на тему


Сейчас этот форум просматривают: нет зарегистрированных пользователей и гости: 0


Вы не можете начинать темы
Вы не можете отвечать на сообщения
Вы не можете редактировать свои сообщения
Вы не можете удалять свои сообщения
Вы не можете добавлять вложения

Перейти:  
cron