Начать новую тему Ответить на тему
Статистика раздачи
Размер: 429.56 МБ | Добавлен: 26 июн 2020, 17:39 | Скачали: 0
Сидеров: 0  [0 байт/сек]    Личеров: 0  [0 байт/сек]
Пред. тема | След. тема 

Автор
Сообщение

СообщениеДобавлено: 26 июн 2020, 17:39 

Ответить с цитатой 

Tunes from Nangilima
Жанр: Electronic, EBM, Industrial, Synth-pop
Носитель: CD
Страна-производитель диска (релиза): Sweden
Год издания: 1996
Издатель (лейбл): Nangijala Records
Номер по каталогу: NAN002
Аудиокодек: FLAC (*.flac)
Тип рипа: tracks+.cue
Битрейт аудио: lossless
Продолжительность: 01:12:14
Источник (релизер): what.cd, ollat
Наличие сканов в содержимом раздачи: нет
Треклист:
1. Statemachine - Thermal Noise (Kvadra Edit)
2. Tragic Comedy - 10100 11 Numbers (Live)
3. Seven Trees - Venereal Approach
4. Mindshift - Showdown
5. Mesh - Headstone
6. Covenant - Norman Bates
7. Vision - Disconnect Me
8. Mesh - Something Wrong (Rectified Mix)
9. Bellspirit - Hide
10. Children Within - Hollow Tree
11. Brave New World - Let This Feeling Be Forever (Madtrain Mix)
12. Plastic Planet - Action Is My Middle Name
13. Lorelei De Lux - Pirater
14. Blipp! - Tvål
15. Avant Garde - Suspicious Thoughts
16. Zupernature - Between Seasons
17. Ozone - Close My Eyes
18. Restricted Area - The Longing
Код:
Exact Audio Copy V1.0 beta 1 from 15. November 2010
EAC extraction logfile from 14. March 2011, 18:38
Various / Tunes from Nangilima
Used drive  : TSSTcorpCDDVDW SE-S084D   Adapter: 1  ID: 0
Read mode               : Secure
Utilize accurate stream : Yes
Defeat audio cache      : Yes
Make use of C2 pointers : No
Read offset correction                      : 6
Overread into Lead-In and Lead-Out          : No
Fill up missing offset samples with silence : Yes
Delete leading and trailing silent blocks   : No
Null samples used in CRC calculations       : Yes
Used interface                              : Native Win32 interface for Win NT & 2000
Gap handling                                : Appended to previous track
Used output format              : User Defined Encoder
Selected bitrate                : 320 kBit/s
Quality                         : High
Add ID3 tag                     : No
Command line compressor         : C:\Program Files (x86)\Exact Audio Copy\Flac\flac.exe
Additional command line options : -V -8 -T "artist=%a" -T "title=%t" -T "album=%g" -T "date=%y" -T "tracknumber=%n" -T "genre=%m" %s
TOC of the extracted CD
     Track |   Start  |  Length  | Start sector | End sector
    ---------------------------------------------------------
        1  |  0:00.00 |  4:02.42 |         0    |    18191
        2  |  4:02.42 |  4:34.43 |     18192    |    38784
        3  |  8:37.10 |  4:46.02 |     38785    |    60236
        4  | 13:23.12 |  4:22.28 |     60237    |    79914
        5  | 17:45.40 |  3:41.65 |     79915    |    96554
        6  | 21:27.30 |  4:36.00 |     96555    |   117254
        7  | 26:03.30 |  4:18.45 |    117255    |   136649
        8  | 30:22.00 |  3:38.05 |    136650    |   153004
        9  | 34:00.05 |  4:17.12 |    153005    |   172291
       10  | 38:17.17 |  5:03.45 |    172292    |   195061
       11  | 43:20.62 |  4:36.38 |    195062    |   215799
       12  | 47:57.25 |  3:20.09 |    215800    |   230808
       13  | 51:17.34 |  3:11.11 |    230809    |   245144
       14  | 54:28.45 |  2:38.07 |    245145    |   257001
       15  | 57:06.52 |  3:19.13 |    257002    |   271939
       16  | 60:25.65 |  4:27.32 |    271940    |   291996
       17  | 64:53.22 |  3:54.13 |    291997    |   309559
       18  | 68:47.35 |  3:27.00 |    309560    |   325084
Track  1
     Filename D:\anan\0_rip\Various - Tunes from Nangilima [FLAC]\01 - Thermal Noise (Kvadra Edit).wav
     Pre-gap length  0:00:02.00
     Peak level 50.1 %
     Extraction speed 3.0 X
     Track quality 100.0 %
     Test CRC 8D52A9AE
     Copy CRC 8D52A9AE
     Accurately ripped (confidence 1)  [4839C8E9]
     Copy OK
Track  2
     Filename D:\anan\0_rip\Various - Tunes from Nangilima [FLAC]\02 - 10100 11 Numbers (Live).wav
     Pre-gap length  0:00:02.40
     Peak level 82.1 %
     Extraction speed 3.4 X
     Track quality 100.0 %
     Test CRC 9C294EDF
     Copy CRC 9C294EDF
     Accurately ripped (confidence 1)  [9CEA1D2F]
     Copy OK
Track  3
     Filename D:\anan\0_rip\Various - Tunes from Nangilima [FLAC]\03 - Venereal Approach.wav
     Pre-gap length  0:00:02.40
     Peak level 100.0 %
     Extraction speed 3.6 X
     Track quality 100.0 %
     Test CRC 7415BE53
     Copy CRC 7415BE53
     Accurately ripped (confidence 1)  [9959CD3A]
     Copy OK
Track  4
     Filename D:\anan\0_rip\Various - Tunes from Nangilima [FLAC]\04 - Showdown.wav
     Pre-gap length  0:00:02.40
     Peak level 71.6 %
     Extraction speed 3.9 X
     Track quality 100.0 %
     Test CRC 4BB08FB6
     Copy CRC 4BB08FB6
     Accurately ripped (confidence 1)  [F0B7CC0B]
     Copy OK
Track  5
     Filename D:\anan\0_rip\Various - Tunes from Nangilima [FLAC]\05 - Headstone.wav
     Pre-gap length  0:00:02.38
     Peak level 69.8 %
     Extraction speed 4.0 X
     Track quality 100.0 %
     Test CRC D9208113
     Copy CRC D9208113
     Accurately ripped (confidence 1)  [1F69C180]
     Copy OK
Track  6
     Filename D:\anan\0_rip\Various - Tunes from Nangilima [FLAC]\06 - Norman Bates.wav
     Pre-gap length  0:00:02.40
     Peak level 90.9 %
     Extraction speed 4.3 X
     Track quality 100.0 %
     Test CRC 31A7B04D
     Copy CRC 31A7B04D
     Accurately ripped (confidence 1)  [D1874F5F]
     Copy OK
Track  7
     Filename D:\anan\0_rip\Various - Tunes from Nangilima [FLAC]\07 - Disconnect Me.wav
     Pre-gap length  0:00:02.43
     Peak level 72.6 %
     Extraction speed 4.4 X
     Track quality 100.0 %
     Test CRC AB4986CB
     Copy CRC AB4986CB
     Accurately ripped (confidence 1)  [C340A57B]
     Copy OK
Track  8
     Filename D:\anan\0_rip\Various - Tunes from Nangilima [FLAC]\08 - Something Wrong (Rectified Mix).wav
     Pre-gap length  0:00:02.38
     Peak level 72.4 %
     Extraction speed 4.5 X
     Track quality 100.0 %
     Test CRC 07E43BFE
     Copy CRC 07E43BFE
     Accurately ripped (confidence 1)  [5E89146A]
     Copy OK
Track  9
     Filename D:\anan\0_rip\Various - Tunes from Nangilima [FLAC]\09 - Hide.wav
     Pre-gap length  0:00:02.40
     Peak level 72.6 %
     Extraction speed 4.7 X
     Track quality 100.0 %
     Test CRC 5875EDB0
     Copy CRC 5875EDB0
     Accurately ripped (confidence 1)  [3C418400]
     Copy OK
Track 10
     Filename D:\anan\0_rip\Various - Tunes from Nangilima [FLAC]\10 - Hollow Tree.wav
     Pre-gap length  0:00:02.40
     Peak level 68.9 %
     Extraction speed 5.1 X
     Track quality 100.0 %
     Test CRC A8DEF9B6
     Copy CRC A8DEF9B6
     Accurately ripped (confidence 1)  [A6A74F7B]
     Copy OK
Track 11
     Filename D:\anan\0_rip\Various - Tunes from Nangilima [FLAC]\11 - Let This Feeling Be Forever (Mix).wav
     Pre-gap length  0:00:02.40
     Peak level 70.4 %
     Extraction speed 5.2 X
     Track quality 100.0 %
     Test CRC BD11491B
     Copy CRC BD11491B
     Accurately ripped (confidence 1)  [FE2C37CE]
     Copy OK
Track 12
     Filename D:\anan\0_rip\Various - Tunes from Nangilima [FLAC]\12 - Action is My Middle Name.wav
     Pre-gap length  0:00:02.40
     Peak level 74.9 %
     Extraction speed 5.2 X
     Track quality 100.0 %
     Test CRC 988D51F1
     Copy CRC 988D51F1
     Accurately ripped (confidence 1)  [CD31800C]
     Copy OK
Track 13
     Filename D:\anan\0_rip\Various - Tunes from Nangilima [FLAC]\13 - Pirater.wav
     Pre-gap length  0:00:02.39
     Peak level 100.0 %
     Extraction speed 5.2 X
     Track quality 100.0 %
     Test CRC 9BD3FAE0
     Copy CRC 9BD3FAE0
     Accurately ripped (confidence 1)  [DCCA2067]
     Copy OK
Track 14
     Filename D:\anan\0_rip\Various - Tunes from Nangilima [FLAC]\14 - Tvål.wav
     Pre-gap length  0:00:02.40
     Peak level 71.6 %
     Extraction speed 5.1 X
     Track quality 100.0 %
     Test CRC C0FC124D
     Copy CRC C0FC124D
     Accurately ripped (confidence 1)  [DC383CAE]
     Copy OK
Track 15
     Filename D:\anan\0_rip\Various - Tunes from Nangilima [FLAC]\15 - Suspicious Thoughts.wav
     Pre-gap length  0:00:02.40
     Peak level 74.9 %
     Extraction speed 5.5 X
     Track quality 100.0 %
     Test CRC E7E2C116
     Copy CRC E7E2C116
     Accurately ripped (confidence 1)  [CCBED328]
     Copy OK
Track 16
     Filename D:\anan\0_rip\Various - Tunes from Nangilima [FLAC]\16 - Between Seasons.wav
     Pre-gap length  0:00:02.40
     Peak level 69.4 %
     Extraction speed 5.8 X
     Track quality 100.0 %
     Test CRC 24A98ED2
     Copy CRC 24A98ED2
     Accurately ripped (confidence 1)  [332512E1]
     Copy OK
Track 17
     Filename D:\anan\0_rip\Various - Tunes from Nangilima [FLAC]\17 - Close My Eyes.wav
     Pre-gap length  0:00:02.40
     Peak level 71.7 %
     Extraction speed 5.8 X
     Track quality 100.0 %
     Test CRC C349FD39
     Copy CRC C349FD39
     Accurately ripped (confidence 1)  [C958AC2F]
     Copy OK
Track 18
     Filename D:\anan\0_rip\Various - Tunes from Nangilima [FLAC]\18 - The Longing.wav
     Pre-gap length  0:00:02.41
     Peak level 61.3 %
     Extraction speed 5.9 X
     Track quality 100.0 %
     Test CRC 9769CE92
     Copy CRC 9769CE92
     Accurately ripped (confidence 1)  [89EDA3B4]
     Copy OK
All tracks accurately ripped
No errors occurred
End of status report
Код:
REM DATE 1996
REM DISCID 1810EE12
REM COMMENT "ExactAudioCopy v1.0b1"
PERFORMER "Various Artists"
TITLE "Tunes from Nangilima"
FILE "01. Statemachine - Thermal Noise (Kvadra Edit).wav" WAVE
  TRACK 01 AUDIO
    TITLE "Thermal Noise (Kvadra Edit)"
    PERFORMER "Statemachine"
    INDEX 01 00:00:00
  TRACK 02 AUDIO
    TITLE "10100 11 Numbers (Live)"
    PERFORMER "Tragic Comedy"
    INDEX 00 04:00:02
FILE "02. Tragic Comedy - 10100 11 Numbers (Live).wav" WAVE
    INDEX 01 00:00:00
  TRACK 03 AUDIO
    TITLE "Venereal Approach"
    PERFORMER "Seven Trees"
    INDEX 00 04:32:03
FILE "03. Seven Trees - Venereal Approach.wav" WAVE
    INDEX 01 00:00:00
  TRACK 04 AUDIO
    TITLE "Showdown"
    PERFORMER "Mindshift"
    INDEX 00 04:43:37
FILE "04. Mindshift - Showdown.wav" WAVE
    INDEX 01 00:00:00
  TRACK 05 AUDIO
    TITLE "Headstone"
    PERFORMER "Mesh"
    INDEX 00 04:19:65
FILE "05. Mesh - Headstone.wav" WAVE
    INDEX 01 00:00:00
  TRACK 06 AUDIO
    TITLE "Norman Bates"
    PERFORMER "Covenant"
    INDEX 00 03:39:25
FILE "06. Covenant - Norman Bates.wav" WAVE
    INDEX 01 00:00:00
  TRACK 07 AUDIO
    TITLE "Disconnect Me"
    PERFORMER "Vision"
    INDEX 00 04:33:32
FILE "07. Vision - Disconnect Me.wav" WAVE
    INDEX 01 00:00:00
  TRACK 08 AUDIO
    TITLE "Something Wrong (Rectified Mix)"
    PERFORMER "Mesh"
    INDEX 00 04:16:07
FILE "08. Mesh - Something Wrong (Rectified Mix).wav" WAVE
    INDEX 01 00:00:00
  TRACK 09 AUDIO
    TITLE "Hide"
    PERFORMER "Bellspirit"
    INDEX 00 03:35:40
FILE "09. Bellspirit - Hide.wav" WAVE
    INDEX 01 00:00:00
  TRACK 10 AUDIO
    TITLE "Hollow Tree"
    PERFORMER "Children Within"
    INDEX 00 04:14:47
FILE "10. Children Within - Hollow Tree.wav" WAVE
    INDEX 01 00:00:00
  TRACK 11 AUDIO
    TITLE "Let This Feeling Be Forever (Madtrain Mix)"
    PERFORMER "Brave New World"
    INDEX 00 05:01:05
FILE "11. Brave New World - Let This Feeling Be Forever (Madtrain Mix).wav" WAVE
    INDEX 01 00:00:00
  TRACK 12 AUDIO
    TITLE "Action Is My Middle Name"
    PERFORMER "Plastic Planet"
    INDEX 00 04:33:73
FILE "12. Plastic Planet - Action Is My Middle Name.wav" WAVE
    INDEX 01 00:00:00
  TRACK 13 AUDIO
    TITLE "Pirater"
    PERFORMER "Lorelei de Lux"
    INDEX 00 03:17:45
FILE "13. Lorelei de Lux - Pirater.wav" WAVE
    INDEX 01 00:00:00
  TRACK 14 AUDIO
    TITLE "Tvål"
    PERFORMER "Blipp!"
    INDEX 00 03:08:46
FILE "14. Blipp! - Tvål.wav" WAVE
    INDEX 01 00:00:00
  TRACK 15 AUDIO
    TITLE "Suspicious Thoughts"
    PERFORMER "Avant Garde"
    INDEX 00 02:35:42
FILE "15. Avant Garde - Suspicious Thoughts.wav" WAVE
    INDEX 01 00:00:00
  TRACK 16 AUDIO
    TITLE "Between Seasons"
    PERFORMER "Zupernature"
    INDEX 00 03:16:48
FILE "16. Zupernature - Between Seasons.wav" WAVE
    INDEX 01 00:00:00
  TRACK 17 AUDIO
    TITLE "Close My Eyes"
    PERFORMER "Ozone"
    INDEX 00 04:24:67
FILE "17. Ozone - Close My Eyes.wav" WAVE
    INDEX 01 00:00:00
  TRACK 18 AUDIO
    TITLE "The Longing"
    PERFORMER "Restricted Area"
    INDEX 00 03:51:47
FILE "18. Restricted Area - The Longing.wav" WAVE
    INDEX 01 00:00:00
Правила, инструкции, FAQ!!!
Торрент  Добавлен [26 июн 2020, 17:39] Скачать торрент Магнет ссылка
Скачать торрент
[ Размер 18.67 КБ / Просмотров 13 ]

Статус
Проверен 
 
Размер  429.56 МБ
Приватный: Нет (DHT включён)
.torrent скачан  0
 


     Отправить личное сообщение
   
Страница 1 из 1
Показать сообщения за:  Поле сортировки  
Начать новую тему Ответить на тему


Сейчас этот форум просматривают: нет зарегистрированных пользователей и гости: 0


Вы не можете начинать темы
Вы не можете отвечать на сообщения
Вы не можете редактировать свои сообщения
Вы не можете удалять свои сообщения
Вы не можете добавлять вложения

Перейти:  
cron