Начать новую тему Ответить на тему
Статистика раздачи
Размер: 293.36 МБ | Добавлен: 26 июн 2020, 17:37 | Скачали: 0
Сидеров: 0  [0 байт/сек]    Личеров: 0  [0 байт/сек]
Пред. тема | След. тема 

Автор
Сообщение

СообщениеДобавлено: 26 июн 2020, 17:37 

Ответить с цитатой 

X Marks The Pedwalk - Human Desolation
Жанр: Electronic / EBM / Industrial
Год выпуска диска: 1993
Аудио кодек: FLAC
Тип рипа: image+.cue
Битрейт аудио: lossless
Продолжительность: 50:23.587
Трэклист:
1 I See You (3:48)
2 The Relapse (3:40)
3 Desolation (7:08)
4 Repulsion (6:14)
5 Criminal Disharmony (3:55)
6 Paranoid Illusions (4:10)
7 Experience (6:22)
8 The Trap (4:29)
9 Taciturnity (2:52)
10 ...Call You... (4:05)
11 Don't Fall Asleep (3:47)
Доп. информация:
Exact Audio Copy V0.99 prebeta 4 from 23. January 2008
EAC extraction logfile from 14. March 2009, 22:08
X Marks The Pedwalk / Human Desolation
Used drive : Optiarc DVD RW AD-7203A Adapter: 1 ID: 0
Read mode : Secure
Utilize accurate stream : Yes
Defeat audio cache : Yes
Make use of C2 pointers : No
Read offset correction : 48
Overread into Lead-In and Lead-Out : No
Fill up missing offset samples with silence : Yes
Delete leading and trailing silent blocks : No
Null samples used in CRC calculations : No
Used interface : Installed external ASPI interface
Used output format : Internal WAV Routines
Sample format : 44.100 Hz; 16 Bit; Stereo
TOC of the extracted CD
Track | Start | Length | Start sector | End sector
---------------------------------------------------------
1 | 0:00.00 | 3:47.14 | 0 | 17038
2 | 3:47.14 | 3:39.20 | 17039 | 33483
3 | 7:26.34 | 7:07.13 | 33484 | 65521
4 | 14:33.47 | 6:13.35 | 65522 | 93531
5 | 20:47.07 | 3:54.18 | 93532 | 111099
6 | 24:41.25 | 4:11.36 | 111100 | 129960
7 | 28:52.61 | 6:20.52 | 129961 | 158512
8 | 35:13.38 | 4:28.36 | 158513 | 178648
9 | 39:41.74 | 2:51.04 | 178649 | 191477
10 | 42:33.03 | 4:03.51 | 191478 | 209753
11 | 46:36.54 | 3:46.65 | 209754 | 226768
Range status and errors
Selected range
Filename D:\Music\X Marks The Pedwalk\1993 Human Desolation\X Marks The Pedwalk - Human Desolation.wav
Peak level 99.7 %
Range quality 100.0 %
Copy CRC 6B03BFB5
Copy OK
No errors occurred
AccurateRip summary
Track 1 not present in database
Track 2 not present in database
Track 3 not present in database
Track 4 not present in database
Track 5 not present in database
Track 6 not present in database
Track 7 not present in database
Track 8 not present in database
Track 9 not present in database
Track 10 not present in database
Track 11 not present in database
None of the tracks are present in the AccurateRip database
End of status report
AUDIOCHECKER v2.0 beta (build 457) - by Dester - opdester@freemail.hu
~~~~~~~~~~~~~~~~~~~~~~~~~~~~~~~~~~
-=== НЕ РЕДАКТИРУЙТЕ ЭТОТ ФАЙЛ! ===-
Путь: ...\1993 Human Desolation
1 -=- X Marks The Pedwalk - Human Desolation.flac -=- CDDA (100%)
184855108
Правила, инструкции, FAQ!!!
Торрент  Добавлен [26 июн 2020, 17:37] Скачать торрент Магнет ссылка
Скачать торрент
[ Размер 12.31 КБ / Просмотров 8 ]

Статус
Проверен 
 
Размер  293.36 МБ
Приватный: Нет (DHT включён)
.torrent скачан  0
 


     Отправить личное сообщение
   
Страница 1 из 1
Показать сообщения за:  Поле сортировки  
Начать новую тему Ответить на тему


Сейчас этот форум просматривают: нет зарегистрированных пользователей и гости: 0


Вы не можете начинать темы
Вы не можете отвечать на сообщения
Вы не можете редактировать свои сообщения
Вы не можете удалять свои сообщения
Вы не можете добавлять вложения

Перейти:  
cron