Начать новую тему Ответить на тему
Статистика раздачи
Размер: 380.19 МБ | Добавлен: 26 июн 2020, 17:53 | Скачали: 0
Сидеров: 0  [0 байт/сек]    Личеров: 0  [0 байт/сек]
Пред. тема | След. тема 

Автор
Сообщение

СообщениеДобавлено: 26 июн 2020, 17:53 

Ответить с цитатой 

Kevorkian Death Cycle - Collection For Injection (2000)
Жанр: Electronic. EBM, Industrial
Страна-производитель диска: US
Год издания диска: 2000
Издатель (лейбл): Metropolis rec.
Номер по каталогу: MET 178
Страна: California, US
Аудио кодек: FLAC
Тип рипа: tracks+.cue
Битрейт аудио: lossless
Продолжительность: 55:16
Источник (релизер): Morок
Наличие сканов в содержимом раздачи: присутствует
Треклист:
01 Water 1:26
02 Man Made 5:30
03 Veal 4:47
04 Let Us Die 4:42
05 Faithless 6:04
06 Sleeping Age 4:30
07 Send Me The Machine 3:30
08 Spring Heel Jack 5:07
09 The Long Walk 3:48
10 Kill For Christ 4:09
11 The End 6:22
12 Biophobe 5:14
Код:
Artist:  Kevorkian Death Cycle
Release: Collection For Injection
Label:  Metropolis
Catalog#: MET 178
Format:  CD
Country: US
Released: 12 Sep 2000
Genre:  Electronic
Style:  EBM, Industrial
Credits:  Mixed By - Rob Robinson (tracks: 1, 6 to 12) , Steven Seibold (tracks: 2 to 5)
  Sampler - Rob Robinson (tracks: 6, 8, 10 to 12)
  Synthesizer - Roger Jarvis (tracks: 1 to 6, 8 to 12)
  Vocals - Ryan Gribbin
Notes:  Re-Release of RAS DVA CD with different artwork.
Tracklisting:
1   Water (1:26)
2   Man Made (5:30)
3   Veal (4:47)
4   Let Us Die (4:42)
5   Faithless (6:04)
6   Sleeping Age (4:30)
7   Send Me The Machine (3:30)
     Synthesizer - Rob Robinson
8   Spring Heel Jack (5:07)
9   The Long Walk (3:48)
10   Kill For Christ (4:09)
     Guitar - Andy Shaw
11   The End (6:22)
12   Biophobe (5:14)
Код:
Exact Audio Copy V0.99 prebeta 4 from 23. January 2008
EAC extraction logfile from 7. May 2009, 18:17
Kevorkian Death Cycle / Collection For Injection
Used drive  : MATSHITADVD-RAM UJ-850   Adapter: 1  ID: 0
Read mode               : Secure
Utilize accurate stream : Yes
Defeat audio cache      : Yes
Make use of C2 pointers : No
Read offset correction                      : 102
Overread into Lead-In and Lead-Out          : No
Fill up missing offset samples with silence : Yes
Delete leading and trailing silent blocks   : No
Null samples used in CRC calculations       : No
Used interface                              : Native Win32 interface for Win NT & 2000
Gap handling                                : Appended to previous track
Used output format              : User Defined Encoder
Selected bitrate                : 768 kBit/s
Quality                         : High
Add ID3 tag                     : No
Command line compressor         : C:\Exact Audio Copy\Flac\flac.exe
Additional command line options : -V -8 -T "artist=%a" -T "title=%t" -T "album=%g" -T "date=%y" -T "tracknumber=%n" -T "genre=%m" %s
TOC of the extracted CD
     Track |   Start  |  Length  | Start sector | End sector
    ---------------------------------------------------------
        1  |  0:00.00 |  1:26.63 |         0    |     6512
        2  |  1:26.63 |  5:30.47 |      6513    |    31309
        3  |  6:57.35 |  4:47.33 |     31310    |    52867
        4  | 11:44.68 |  4:42.45 |     52868    |    74062
        5  | 16:27.38 |  6:04.47 |     74063    |   101409
        6  | 22:32.10 |  4:30.65 |    101410    |   121724
        7  | 27:03.00 |  3:30.13 |    121725    |   137487
        8  | 30:33.13 |  5:07.57 |    137488    |   160569
        9  | 35:40.70 |  3:48.33 |    160570    |   177702
       10  | 39:29.28 |  4:09.40 |    177703    |   196417
       11  | 43:38.68 |  6:22.42 |    196418    |   225109
       12  | 50:01.35 |  5:14.48 |    225110    |   248707
Track  1
     Filename C:\mp3 temp\kevorkian death cycle - collection for injection flac\Kevorkian Death Cycle - Collection For Injection - 01 - Water.wav
     Pre-gap length  0:00:02.00
     Peak level 96.5 %
     Track quality 100.0 %
     Test CRC F7ED0024
     Copy CRC F7ED0024
     Accurately ripped (confidence 2)  [5BC92F68]
     Copy OK
Track  2
     Filename C:\mp3 temp\kevorkian death cycle - collection for injection flac\Kevorkian Death Cycle - Collection For Injection - 02 - Man Made.wav
     Peak level 96.6 %
     Track quality 100.0 %
     Test CRC DAA73F43
     Copy CRC DAA73F43
     Accurately ripped (confidence 2)  [96DCBAA1]
     Copy OK
Track  3
     Filename C:\mp3 temp\kevorkian death cycle - collection for injection flac\Kevorkian Death Cycle - Collection For Injection - 03 - Veal.wav
     Pre-gap length  0:00:02.00
     Peak level 96.6 %
     Track quality 100.0 %
     Test CRC 54D7CD33
     Copy CRC 54D7CD33
     Accurately ripped (confidence 2)  [C0BC2BCD]
     Copy OK
Track  4
     Filename C:\mp3 temp\kevorkian death cycle - collection for injection flac\Kevorkian Death Cycle - Collection For Injection - 04 - Let Us Die.wav
     Pre-gap length  0:00:00.15
     Peak level 98.5 %
     Track quality 99.9 %
     Test CRC 677DA9D8
     Copy CRC 677DA9D8
     Accurately ripped (confidence 2)  [B8BC23E2]
     Copy OK
Track  5
     Filename C:\mp3 temp\kevorkian death cycle - collection for injection flac\Kevorkian Death Cycle - Collection For Injection - 05 - Faithless.wav
     Pre-gap length  0:00:00.45
     Peak level 96.6 %
     Track quality 100.0 %
     Test CRC CBA2E11F
     Copy CRC CBA2E11F
     Accurately ripped (confidence 2)  [7CB191DA]
     Copy OK
Track  6
     Filename C:\mp3 temp\kevorkian death cycle - collection for injection flac\Kevorkian Death Cycle - Collection For Injection - 06 - Sleeping Age.wav
     Pre-gap length  0:00:22.22
     Peak level 96.6 %
     Track quality 100.0 %
     Test CRC 46BBC86E
     Copy CRC 46BBC86E
     Accurately ripped (confidence 2)  [78C51B33]
     Copy OK
Track  7
     Filename C:\mp3 temp\kevorkian death cycle - collection for injection flac\Kevorkian Death Cycle - Collection For Injection - 07 - Send Me The Machine.wav
     Pre-gap length  0:00:00.31
     Peak level 96.6 %
     Track quality 99.9 %
     Test CRC 8283670B
     Copy CRC 8283670B
     Accurately ripped (confidence 2)  [5F7979C0]
     Copy OK
Track  8
     Filename C:\mp3 temp\kevorkian death cycle - collection for injection flac\Kevorkian Death Cycle - Collection For Injection - 08 - Spring Heel Jack.wav
     Pre-gap length  0:00:02.08
     Peak level 96.6 %
     Track quality 100.0 %
     Test CRC B47C911F
     Copy CRC B47C911F
     Track not present in AccurateRip database
     Copy OK
Track  9
     Filename C:\mp3 temp\kevorkian death cycle - collection for injection flac\Kevorkian Death Cycle - Collection For Injection - 09 - The Long Walk.wav
     Pre-gap length  0:00:32.72
     Peak level 96.6 %
     Track quality 99.9 %
     Test CRC 4EBBDEE4
     Copy CRC 4EBBDEE4
     Accurately ripped (confidence 2)  [C289BDCB]
     Copy OK
Track 10
     Filename C:\mp3 temp\kevorkian death cycle - collection for injection flac\Kevorkian Death Cycle - Collection For Injection - 10 - Kill For Christ.wav
     Pre-gap length  0:00:02.33
     Peak level 96.6 %
     Track quality 100.0 %
     Test CRC 362E3A8F
     Copy CRC 362E3A8F
     Accurately ripped (confidence 2)  [1FD1CF31]
     Copy OK
Track 11
     Filename C:\mp3 temp\kevorkian death cycle - collection for injection flac\Kevorkian Death Cycle - Collection For Injection - 11 - The End.wav
     Pre-gap length  0:00:04.03
     Peak level 96.6 %
     Track quality 99.9 %
     Test CRC 640972A6
     Copy CRC 640972A6
     Track not present in AccurateRip database
     Copy OK
Track 12
     Filename C:\mp3 temp\kevorkian death cycle - collection for injection flac\Kevorkian Death Cycle - Collection For Injection - 12 - Biophobe.wav
     Pre-gap length  0:00:02.33
     Peak level 96.6 %
     Track quality 100.0 %
     Test CRC F4D1C7AB
     Copy CRC F4D1C7AB
     Accurately ripped (confidence 2)  [9924A432]
     Copy OK
 0 track(s) accurately ripped
 2 track(s) not present in the AccurateRip database
Some tracks could not be verified as accurate
No errors occurred
End of status report
Код:
REM GENRE Techno-Industrial
REM DATE 1996
REM DISCID 990CF40C
REM COMMENT "ExactAudioCopy v0.99pb4"
PERFORMER "Kevorkian Death Cycle"
TITLE "Collection For Injection"
FILE "Kevorkian Death Cycle - Collection For Injection - 01 - Water.wav" WAVE
  TRACK 01 AUDIO
    TITLE "Water"
    PERFORMER "Kevorkian Death Cycle"
    INDEX 01 00:00:00
FILE "Kevorkian Death Cycle - Collection For Injection - 02 - Man Made.wav" WAVE
  TRACK 02 AUDIO
    TITLE "Man Made"
    PERFORMER "Kevorkian Death Cycle"
    INDEX 01 00:00:00
  TRACK 03 AUDIO
    TITLE "Veal"
    PERFORMER "Kevorkian Death Cycle"
    INDEX 00 05:28:47
FILE "Kevorkian Death Cycle - Collection For Injection - 03 - Veal.wav" WAVE
    INDEX 01 00:00:00
  TRACK 04 AUDIO
    TITLE "Let Us Die"
    PERFORMER "Kevorkian Death Cycle"
    INDEX 00 04:47:18
FILE "Kevorkian Death Cycle - Collection For Injection - 04 - Let Us Die.wav" WAVE
    INDEX 01 00:00:00
  TRACK 05 AUDIO
    TITLE "Faithless"
    PERFORMER "Kevorkian Death Cycle"
    INDEX 00 04:42:00
FILE "Kevorkian Death Cycle - Collection For Injection - 05 - Faithless.wav" WAVE
    INDEX 01 00:00:00
  TRACK 06 AUDIO
    TITLE "Sleeping Age"
    PERFORMER "Kevorkian Death Cycle"
    INDEX 00 05:42:25
FILE "Kevorkian Death Cycle - Collection For Injection - 06 - Sleeping Age.wav" WAVE
    INDEX 01 00:00:00
  TRACK 07 AUDIO
    TITLE "Send Me The Machine"
    PERFORMER "Kevorkian Death Cycle"
    INDEX 00 04:30:34
FILE "Kevorkian Death Cycle - Collection For Injection - 07 - Send Me The Machine.wav" WAVE
    INDEX 01 00:00:00
  TRACK 08 AUDIO
    TITLE "Spring Heel Jack"
    PERFORMER "Kevorkian Death Cycle"
    INDEX 00 03:28:05
FILE "Kevorkian Death Cycle - Collection For Injection - 08 - Spring Heel Jack.wav" WAVE
    INDEX 01 00:00:00
  TRACK 09 AUDIO
    TITLE "The Long Walk"
    PERFORMER "Kevorkian Death Cycle"
    INDEX 00 04:34:60
FILE "Kevorkian Death Cycle - Collection For Injection - 09 - The Long Walk.wav" WAVE
    INDEX 01 00:00:00
  TRACK 10 AUDIO
    TITLE "Kill For Christ"
    PERFORMER "Kevorkian Death Cycle"
    INDEX 00 03:46:00
FILE "Kevorkian Death Cycle - Collection For Injection - 10 - Kill For Christ.wav" WAVE
    INDEX 01 00:00:00
  TRACK 11 AUDIO
    TITLE "The End"
    PERFORMER "Kevorkian Death Cycle"
    INDEX 00 04:05:37
FILE "Kevorkian Death Cycle - Collection For Injection - 11 - The End.wav" WAVE
    INDEX 01 00:00:00
  TRACK 12 AUDIO
    TITLE "Biophobe"
    PERFORMER "Kevorkian Death Cycle"
    INDEX 00 06:20:09
FILE "Kevorkian Death Cycle - Collection For Injection - 12 - Biophobe.wav" WAVE
    INDEX 01 00:00:00
Код:
AUDIOCHECKER v2.0 beta (build 457) - by Dester - opdester@freemail.hu
~~~~~~~~~~~~~~~~~~~~~~~~~~~~~~~~~~
-=== DO NOT EDIT THIS FILE! ===-
Path: ...\Kevorkian Death Cycle - Collection For Injection
01 -=- Kevorkian Death Cycle - Collection For Injection - 01 - Water.flac -=- CDDA (100%)
02 -=- Kevorkian Death Cycle - Collection For Injection - 02 - Man Made.flac -=- CDDA (100%)
03 -=- Kevorkian Death Cycle - Collection For Injection - 03 - Veal.flac -=- CDDA (100%)
04 -=- Kevorkian Death Cycle - Collection For Injection - 04 - Let Us Die.flac -=- CDDA (100%)
05 -=- Kevorkian Death Cycle - Collection For Injection - 05 - Faithless.flac -=- CDDA (100%)
06 -=- Kevorkian Death Cycle - Collection For Injection - 06 - Sleeping Age.flac -=- CDDA (100%)
07 -=- Kevorkian Death Cycle - Collection For Injection - 07 - Send Me The Machine.flac -=- CDDA (100%)
08 -=- Kevorkian Death Cycle - Collection For Injection - 08 - Spring Heel Jack.flac -=- CDDA (100%)
09 -=- Kevorkian Death Cycle - Collection For Injection - 09 - The Long Walk.flac -=- CDDA (100%)
10 -=- Kevorkian Death Cycle - Collection For Injection - 10 - Kill For Christ.flac -=- CDDA (100%)
11 -=- Kevorkian Death Cycle - Collection For Injection - 11 - The End.flac -=- CDDA (100%)
12 -=- Kevorkian Death Cycle - Collection For Injection - 12 - Biophobe.flac -=- CDDA (100%)
Summary 100,00% CDDA
182488004
05 Faithless 6:04

01 Water 1:26
Доп. информация:Альбом есть в двух изданиях - в кассетном и CD 1994, и в CD (Ras Dva Records) 1996, сильно отличающихся по содержанию. Метрополис переиздало в 2000 альбом '96-го, создав оригинальные обложки. Здесь представлено издательство Метрополиса.
В целом как и у большинства ранних KDC качество дисков говняное как и исходника т.е. студийного материала соответственно..., но это настолько большая редкость, что качество тут уже Не Смущает. Раздача создана благодаря исходному материалу славного мадъяра Dester.
Real Name: Rob Robinson, Roger Jarvis, Ryan Gribbin
Mastered By - Ric Laciak
Mixed By - Rob Robinson (3) (tracks: 1, 6 to 12) , Steven Seibold* (tracks: 2 to 5)
Producer - KDC* , Steven Seibold*
Recorded By - Jeremiah Soto (tracks: 1, 6 to 12) , KDC* , Steven Seibold* (tracks: 2 to 5)
Sampler - Rob Robinson (3) (tracks: 6, 8, 10 to 12)
Synthesizer - Roger Jarvis
Vocals, Lyrics By - Ryan Gribbin
Written-By - Kevorkian Death Cycle
Правила, инструкции, FAQ!!!
Торрент  Добавлен [26 июн 2020, 17:53] Скачать торрент Магнет ссылка
Скачать торрент
[ Размер 17.24 КБ / Просмотров 9 ]

Статус
Проверен 
 
Размер  380.19 МБ
Приватный: Нет (DHT включён)
.torrent скачан  0
 


     Отправить личное сообщение
   
Страница 1 из 1
Показать сообщения за:  Поле сортировки  
Начать новую тему Ответить на тему


Сейчас этот форум просматривают: нет зарегистрированных пользователей и гости: 0


Вы не можете начинать темы
Вы не можете отвечать на сообщения
Вы не можете редактировать свои сообщения
Вы не можете удалять свои сообщения
Вы не можете добавлять вложения

Перейти:  
cron