Начать новую тему Ответить на тему
Статистика раздачи
Размер: 556.71 МБ | Добавлен: 26 июн 2020, 17:38 | Скачали: 0
Сидеров: 0  [0 байт/сек]    Личеров: 0  [0 байт/сек]
Пред. тема | След. тема 

Автор
Сообщение

СообщениеДобавлено: 26 июн 2020, 17:38 

Ответить с цитатой 

Septic
Жанр: Electronic, EBM, Industrial, Electro
Носитель: CD
Страна-производитель диска (релиза): Germany
Год издания: 1999
Издатель (лейбл): Dependent Records
Номер по каталогу: mind-001, SPV 085-50002
Аудиокодек: FLAC (*.flac)
Тип рипа: tracks+.cue
Битрейт аудио: lossless
Продолжительность: 01:19:31
Источник (релизер): what.cd, Sarkohma
Наличие сканов в содержимом раздачи: нет
Треклист:
1. Front Line Assembly - Sado-Masochism (Abandoned Mix)
2. :wumpscut: - Flucht
3. Covenant - Luminal (Test Version)
4. Individual Totem - In Memorial
5. Velvet Acid Christ - W.H.T.S.W.H.T.K. 98 (No Sleep 'til Fun with Knives Mix)
6. Arzt + Pfusch - Skumfuck (Version 2)
7. Numb - Half-Life
8. Mesh - People Like Me (Alt Mesh Mix)
9. VNV Nation - Rubicon
10. Stormkern - Im Traum
11. New Mind - We Can Be Together (Panther Modern Mix)
12. Suicide Commando - Last Decision
13. Pail - Paver Structure (Suffering Remix)
14. Click Click - HSD
Код:
Exact Audio Copy V1.0 beta 1 from 15. November 2010
EAC extraction logfile from 18. May 2011, 19:15
Various / Septic
Used drive  : LITE-ON DVDRW LH-20A1H   Adapter: 0  ID: 0
Read mode               : Secure
Utilize accurate stream : Yes
Defeat audio cache      : Yes
Make use of C2 pointers : No
Read offset correction                      : 6
Overread into Lead-In and Lead-Out          : No
Fill up missing offset samples with silence : Yes
Delete leading and trailing silent blocks   : No
Null samples used in CRC calculations       : Yes
Used interface                              : Native Win32 interface for Win NT & 2000
Gap handling                                : Appended to previous track
Used output format              : User Defined Encoder
Selected bitrate                : 1024 kBit/s
Quality                         : High
Add ID3 tag                     : No
Command line compressor         : C:\Program Files\Exact Audio Copy\Flac\flac.exe
Additional command line options : -V -8 -T "artist=%a" -T "title=%t" -T "album=%g" -T "date=%y" -T "tracknumber=%n" -T "genre=%m" %s
TOC of the extracted CD
     Track |   Start  |  Length  | Start sector | End sector
    ---------------------------------------------------------
        1  |  0:00.00 |  6:29.42 |         0    |    29216
        2  |  6:29.42 |  4:26.15 |     29217    |    49181
        3  | 10:55.57 |  4:45.58 |     49182    |    70614
        4  | 15:41.40 |  5:04.30 |     70615    |    93444
        5  | 20:45.70 |  6:20.02 |     93445    |   121946
        6  | 27:05.72 |  6:07.05 |    121947    |   149476
        7  | 33:13.02 |  6:02.00 |    149477    |   176626
        8  | 39:15.02 |  5:08.28 |    176627    |   199754
        9  | 44:23.30 |  5:51.10 |    199755    |   226089
       10  | 50:14.40 |  4:32.25 |    226090    |   246514
       11  | 54:46.65 |  4:56.35 |    246515    |   268749
       12  | 59:43.25 |  4:59.72 |    268750    |   291246
       13  | 64:43.22 |  5:43.70 |    291247    |   317041
       14  | 70:27.17 |  9:03.58 |    317042    |   357824
Track  1
     Filename D:\Music\New\Rips\FLAC\Various Artists - Septic (1999) [FLAC]\01 - Front Line Assembly - Sado-Masochism (Abandoned Mix by Velvet Acid Christ).wav
     Pre-gap length  0:00:02.00
     Peak level 98.4 %
     Extraction speed 2.2 X
     Track quality 100.0 %
     Test CRC 503223F7
     Copy CRC 503223F7
     Accurately ripped (confidence 2)  [3036AC5F]
     Copy OK
Track  2
     Filename D:\Music\New\Rips\FLAC\Various Artists - Septic (1999) [FLAC]\02 - -wumpscut- - Flucht.wav
     Pre-gap length  0:00:01.60
     Peak level 72.7 %
     Extraction speed 2.4 X
     Track quality 100.0 %
     Test CRC C326CB35
     Copy CRC C326CB35
     Accurately ripped (confidence 2)  [3A9D7A77]
     Copy OK
Track  3
     Filename D:\Music\New\Rips\FLAC\Various Artists - Septic (1999) [FLAC]\03 - Covenant - Luminal (Test Version).wav
     Pre-gap length  0:00:01.93
     Peak level 97.8 %
     Extraction speed 2.6 X
     Track quality 100.0 %
     Test CRC CF385676
     Copy CRC CF385676
     Accurately ripped (confidence 2)  [FB399BE9]
     Copy OK
Track  4
     Filename D:\Music\New\Rips\FLAC\Various Artists - Septic (1999) [FLAC]\04 - Individual Totem - In Memorial.wav
     Pre-gap length  0:00:01.70
     Peak level 98.4 %
     Extraction speed 2.8 X
     Track quality 100.0 %
     Test CRC 45A9DD1D
     Copy CRC 45A9DD1D
     Accurately ripped (confidence 2)  [474BB24D]
     Copy OK
Track  5
     Filename D:\Music\New\Rips\FLAC\Various Artists - Septic (1999) [FLAC]\05 - Velvet Acid Christ - W.H.T.S.W.H.T.K. 98 (No Sleep 'til Fun With Knives Mix).wav
     Pre-gap length  0:00:01.66
     Peak level 98.4 %
     Extraction speed 3.1 X
     Track quality 100.0 %
     Test CRC 5FDCC45C
     Copy CRC 5FDCC45C
     Accurately ripped (confidence 2)  [49A06047]
     Copy OK
Track  6
     Filename D:\Music\New\Rips\FLAC\Various Artists - Septic (1999) [FLAC]\06 - Arzt + Pfusch - Skumfuck (Version 2).wav
     Pre-gap length  0:00:01.56
     Peak level 98.4 %
     Extraction speed 3.3 X
     Track quality 100.0 %
     Test CRC 1664C4DC
     Copy CRC 1664C4DC
     Accurately ripped (confidence 2)  [65013A3E]
     Copy OK
Track  7
     Filename D:\Music\New\Rips\FLAC\Various Artists - Septic (1999) [FLAC]\07 - Numb - Half-Life.wav
     Pre-gap length  0:00:02.49
     Peak level 97.8 %
     Extraction speed 3.5 X
     Track quality 100.0 %
     Test CRC 0E98122E
     Copy CRC 0E98122E
     Accurately ripped (confidence 2)  [E9F494E6]
     Copy OK
Track  8
     Filename D:\Music\New\Rips\FLAC\Various Artists - Septic (1999) [FLAC]\08 - Mesh - People Like Me (Alt.MESH.Mix).wav
     Pre-gap length  0:00:01.53
     Peak level 97.5 %
     Extraction speed 3.6 X
     Track quality 100.0 %
     Test CRC AAA0F42D
     Copy CRC AAA0F42D
     Accurately ripped (confidence 2)  [F5ADC2D5]
     Copy OK
Track  9
     Filename D:\Music\New\Rips\FLAC\Various Artists - Septic (1999) [FLAC]\09 - VNV Nation - Rubicon.wav
     Pre-gap length  0:00:02.90
     Peak level 98.4 %
     Extraction speed 3.8 X
     Track quality 100.0 %
     Test CRC A5FD450C
     Copy CRC A5FD450C
     Accurately ripped (confidence 2)  [11D1CB6D]
     Copy OK
Track 10
     Filename D:\Music\New\Rips\FLAC\Various Artists - Septic (1999) [FLAC]\10 - Stromkern - Im Traum.wav
     Pre-gap length  0:00:03.64
     Peak level 97.8 %
     Extraction speed 3.8 X
     Track quality 100.0 %
     Test CRC 2FD9180A
     Copy CRC 2FD9180A
     Accurately ripped (confidence 2)  [547FE173]
     Copy OK
Track 11
     Filename D:\Music\New\Rips\FLAC\Various Artists - Septic (1999) [FLAC]\11 - New Mind - We Can Be Together (Panther Modern Mix).wav
     Pre-gap length  0:00:01.90
     Peak level 90.9 %
     Extraction speed 4.0 X
     Track quality 100.0 %
     Test CRC 122911C0
     Copy CRC 122911C0
     Accurately ripped (confidence 2)  [A846AA51]
     Copy OK
Track 12
     Filename D:\Music\New\Rips\FLAC\Various Artists - Septic (1999) [FLAC]\12 - Suicide Commando - Last Decision.wav
     Pre-gap length  0:00:01.86
     Peak level 97.8 %
     Extraction speed 4.1 X
     Track quality 100.0 %
     Test CRC C51E1EF6
     Copy CRC C51E1EF6
     Accurately ripped (confidence 2)  [0E066858]
     Copy OK
Track 13
     Filename D:\Music\New\Rips\FLAC\Various Artists - Septic (1999) [FLAC]\13 - Pail - Paver Structure (Suffering Remix).wav
     Pre-gap length  0:00:01.73
     Peak level 98.4 %
     Extraction speed 4.3 X
     Track quality 100.0 %
     Test CRC B7B0DD39
     Copy CRC B7B0DD39
     Accurately ripped (confidence 2)  [AC2B1112]
     Copy OK
Track 14
     Filename D:\Music\New\Rips\FLAC\Various Artists - Septic (1999) [FLAC]\14 - Click Click - HSD.wav
     Pre-gap length  0:00:01.40
     Peak level 98.4 %
     Extraction speed 4.7 X
     Track quality 100.0 %
     Test CRC 2AC34DBA
     Copy CRC 2AC34DBA
     Accurately ripped (confidence 2)  [34CDE71E]
     Copy OK
All tracks accurately ripped
No errors occurred
End of status report
==== Log checksum DFDF2DAFC45FA25E732601D12E46D8A10935D27E0EB195DC7998E09C6E744D57 ====
Код:
REM DATE 1999
REM DISCID E812A30E
REM COMMENT "ExactAudioCopy v1.0b1"
PERFORMER "Various Artists"
TITLE "Septic"
FILE "01. Front Line Assembly - Sado-Masochism (Abandoned Mix).wav" WAVE
  TRACK 01 AUDIO
    INDEX 01 00:00:00
  TRACK 02 AUDIO
    INDEX 00 06:27:72
FILE "02. -wumpscut- - Flucht.wav" WAVE
    INDEX 01 00:00:00
  TRACK 03 AUDIO
    INDEX 00 04:24:20
FILE "03. Covenant - Luminal (Test Version).wav" WAVE
    INDEX 01 00:00:00
  TRACK 04 AUDIO
    INDEX 00 04:44:05
FILE "04. Individual Totem - In Memorial.wav" WAVE
    INDEX 01 00:00:00
  TRACK 05 AUDIO
    INDEX 00 05:02:55
FILE "05. Velvet Acid Christ - W.H.T.S.W.H.T.K. 98 (No Sleep 'til Fun with Knives Mix).wav" WAVE
    INDEX 01 00:00:00
  TRACK 06 AUDIO
    INDEX 00 06:18:35
FILE "06. Arzt + Pfusch - Skumfuck (Version 2).wav" WAVE
    INDEX 01 00:00:00
  TRACK 07 AUDIO
    INDEX 00 06:04:43
FILE "07. Numb - Half-Life.wav" WAVE
    INDEX 01 00:00:00
  TRACK 08 AUDIO
    INDEX 00 06:00:35
FILE "08. Mesh - People Like Me (Alt Mesh Mix).wav" WAVE
    INDEX 01 00:00:00
  TRACK 09 AUDIO
    INDEX 00 05:05:35
FILE "09. VNV Nation - Rubicon.wav" WAVE
    INDEX 01 00:00:00
  TRACK 10 AUDIO
    INDEX 00 05:47:37
FILE "10. Stromkern - Im Traum.wav" WAVE
    INDEX 01 00:00:00
  TRACK 11 AUDIO
    INDEX 00 04:30:32
FILE "11. New Mind - We Can Be Together (Panther Modern Mix).wav" WAVE
    INDEX 01 00:00:00
  TRACK 12 AUDIO
    INDEX 00 04:54:45
FILE "12. Suicide Commando - Last Decision.wav" WAVE
    INDEX 01 00:00:00
  TRACK 13 AUDIO
    INDEX 00 04:58:17
FILE "13. Pail - Paver Structure (Suffering Remix).wav" WAVE
    INDEX 01 00:00:00
  TRACK 14 AUDIO
    INDEX 00 05:42:40
FILE "14. Click Click - HSD.wav" WAVE
    INDEX 01 00:00:00
Правила, инструкции, FAQ!!!
Торрент  Добавлен [26 июн 2020, 17:38] Скачать торрент Магнет ссылка
Скачать торрент
[ Размер 12.55 КБ / Просмотров 11 ]

Статус
Проверен 
 
Размер  556.71 МБ
Приватный: Нет (DHT включён)
.torrent скачан  0
 


     Отправить личное сообщение
   
Страница 1 из 1
Показать сообщения за:  Поле сортировки  
Начать новую тему Ответить на тему


Сейчас этот форум просматривают: нет зарегистрированных пользователей и гости: 0


Вы не можете начинать темы
Вы не можете отвечать на сообщения
Вы не можете редактировать свои сообщения
Вы не можете удалять свои сообщения
Вы не можете добавлять вложения

Перейти:  
cron