Начать новую тему Ответить на тему
Статистика раздачи
Размер: 518.19 МБ | Добавлен: 26 июн 2020, 17:40 | Скачали: 0
Сидеров: 1  [0 байт/сек]    Личеров: 0  [0 байт/сек]
Пред. тема | След. тема 

Автор
Сообщение

СообщениеДобавлено: 26 июн 2020, 17:40 

Ответить с цитатой 

Extreme Clubhits IV
Жанр: Electronic, EBM, Goth Rock, Synthpop
Носитель: CD
Страна-производитель диска (релиза): Germany
Год издания: 2000
Издатель (лейбл): UpSolution Recordings
Номер по каталогу: UpSolution CD 0034
Аудиокодек: FLAC (*.flac)
Тип рипа: tracks+.cue
Битрейт аудио: lossless
Продолжительность: 01:07:38
Источник (релизер): what.cd, chomablue
Наличие сканов в содержимом раздачи: нет
Треклист:
1. Das Ich - Destillat (VNV Nation Remix)
2. Funker Vogt - Gunman (Crossed)
3. Apoptygma Berzerk - Eclipse (Dimension D Rmx)
4. Covenant - Dead Stars (Radio Version)
5. C-Tec - She Left (Radio Version)
6. Shock Therapy - Blood on Your Hands
7. And One - Metalhammer
8. Aviador Dro - Ella Perdio El Control
9. The Fair Sex - Helpless Fall
10. Michael Cretu - Total Normal (7" Version)
11. Invisible Limits - Love Will Tear Us Apart (Single Mix)
12. Pink Turns Blue - Your Master Is Calling (Version II)
13. Escape with Romeo - Somebody
14. Cosmicity - Awake
15. Alphaville - A Victory of Love
Код:
X Lossless Decoder version 20121027 (142.1)
XLD extraction logfile from 2012-11-06 18:06:40 -0800
Various Artists / Extreme Clubhits IV
Used drive : HL-DT-ST DVDRW  GA32N (revision KE06)
Ripper mode             : XLD Secure Ripper
Disable audio cache     : OK for the drive with a cache less than 1375KiB
Make use of C2 pointers : NO
Read offset correction  : 103
Max retry count         : 20
Gap status              : Analyzed, Appended
TOC of the extracted CD
     Track |   Start  |  Length  | Start sector | End sector
    ---------------------------------------------------------
        1  | 00:00:00 | 06:04:56 |         0    |    27355
        2  | 06:04:56 | 04:15:55 |     27356    |    46535
        3  | 10:20:36 | 06:17:33 |     46536    |    74843
        4  | 16:37:69 | 04:08:64 |     74844    |    93507
        5  | 20:46:58 | 04:22:02 |     93508    |   113159
        6  | 25:08:60 | 08:15:03 |    113160    |   150287
        7  | 33:23:63 | 05:22:38 |    150288    |   174475
        8  | 38:46:26 | 05:49:50 |    174476    |   200700
        9  | 44:36:01 | 04:24:58 |    200701    |   220558
       10  | 49:00:59 | 03:52:55 |    220559    |   238013
       11  | 52:53:39 | 03:28:30 |    238014    |   253643
       12  | 56:21:69 | 07:35:62 |    253644    |   287830
       13  | 63:57:56 | 05:28:11 |    287831    |   312441
       14  | 69:25:67 | 04:04:41 |    312442    |   330782
       15  | 73:30:33 | 04:17:22 |    330783    |   350079
AccurateRip Summary
    Disc not found in AccurateRip DB.
All Tracks
    Album gain               : -5.85 dB
    Peak                     : 1.000000
    Statistics
        Read error                           : 0
        Jitter error (maybe fixed)           : 0
        Retry sector count                   : 0
        Damaged sector count                 : 0
Track 01
    Filename : /Users/michaelspadoni/Desktop/Various Artists - Extreme Clubhits IV [FLAC]/01 Das Ich - Destillat (VNV Nation Remix).flac
    Pre-gap length : 00:02:00
    Track gain               : -5.58 dB
    Peak                     : 0.927368
    CRC32 hash (test run)    : 36278CAE
    CRC32 hash               : 36278CAE
    CRC32 hash (skip zero)   : 7D6F08C1
    AccurateRip v1 signature : 74BD0029
    AccurateRip v2 signature : E747818B
        ->Track not present in AccurateRip database.
    Statistics
        Read error                           : 0
        Jitter error (maybe fixed)           : 0
        Retry sector count                   : 0
        Damaged sector count                 : 0
Track 02
    Filename : /Users/michaelspadoni/Desktop/Various Artists - Extreme Clubhits IV [FLAC]/02 Funker Vogt - Gunman (Crossed).flac
    Track gain               : -6.47 dB
    Peak                     : 0.942200
    CRC32 hash (test run)    : 59789C8D
    CRC32 hash               : 59789C8D
    CRC32 hash (skip zero)   : 95447589
    AccurateRip v1 signature : C5F9234F
    AccurateRip v2 signature : D5E30C57
        ->Track not present in AccurateRip database.
    Statistics
        Read error                           : 0
        Jitter error (maybe fixed)           : 0
        Retry sector count                   : 0
        Damaged sector count                 : 0
Track 03
    Filename : /Users/michaelspadoni/Desktop/Various Artists - Extreme Clubhits IV [FLAC]/03 Apoptygma Berzerk - Eclipse (Dimension D RMX).flac
    Track gain               : -6.23 dB
    Peak                     : 0.669342
    CRC32 hash (test run)    : B05C271A
    CRC32 hash               : B05C271A
    CRC32 hash (skip zero)   : D37CD2DC
    AccurateRip v1 signature : 46BE10B8
    AccurateRip v2 signature : F3E126FC
        ->Track not present in AccurateRip database.
    Statistics
        Read error                           : 0
        Jitter error (maybe fixed)           : 0
        Retry sector count                   : 0
        Damaged sector count                 : 0
Track 04
    Filename : /Users/michaelspadoni/Desktop/Various Artists - Extreme Clubhits IV [FLAC]/04 Covenant - Dead Stars (Radio Version).flac
    Pre-gap length : 00:00:66
    Track gain               : -6.56 dB
    Peak                     : 0.892242
    CRC32 hash (test run)    : 36611C75
    CRC32 hash               : 36611C75
    CRC32 hash (skip zero)   : CAB9EDAA
    AccurateRip v1 signature : E3C54EA3
    AccurateRip v2 signature : FCDA0E2E
        ->Track not present in AccurateRip database.
    Statistics
        Read error                           : 0
        Jitter error (maybe fixed)           : 0
        Retry sector count                   : 0
        Damaged sector count                 : 0
Track 05
    Filename : /Users/michaelspadoni/Desktop/Various Artists - Extreme Clubhits IV [FLAC]/05 C-Tec - She Left (Radio Version).flac
    Pre-gap length : 00:00:42
    Track gain               : -5.88 dB
    Peak                     : 0.731079
    CRC32 hash (test run)    : D331B029
    CRC32 hash               : D331B029
    CRC32 hash (skip zero)   : 22D33AA7
    AccurateRip v1 signature : D6480997
    AccurateRip v2 signature : F1BE8D76
        ->Track not present in AccurateRip database.
    Statistics
        Read error                           : 0
        Jitter error (maybe fixed)           : 0
        Retry sector count                   : 0
        Damaged sector count                 : 0
Track 06
    Filename : /Users/michaelspadoni/Desktop/Various Artists - Extreme Clubhits IV [FLAC]/06 Shock Therapy - Blood On Your Hands.flac
    Track gain               : -6.25 dB
    Peak                     : 0.643188
    CRC32 hash (test run)    : B5066F54
    CRC32 hash               : B5066F54
    CRC32 hash (skip zero)   : EA3F5EC1
    AccurateRip v1 signature : E3C39F92
    AccurateRip v2 signature : AD4EB53B
        ->Track not present in AccurateRip database.
    Statistics
        Read error                           : 0
        Jitter error (maybe fixed)           : 0
        Retry sector count                   : 0
        Damaged sector count                 : 0
Track 07
    Filename : /Users/michaelspadoni/Desktop/Various Artists - Extreme Clubhits IV [FLAC]/07 And One - Metalhammer.flac
    Track gain               : -4.94 dB
    Peak                     : 0.645935
    CRC32 hash (test run)    : 9E167A8B
    CRC32 hash               : 9E167A8B
    CRC32 hash (skip zero)   : 119935E1
    AccurateRip v1 signature : B498D2CA
    AccurateRip v2 signature : DFD8F7CA
        ->Track not present in AccurateRip database.
    Statistics
        Read error                           : 0
        Jitter error (maybe fixed)           : 0
        Retry sector count                   : 0
        Damaged sector count                 : 0
Track 08
    Filename : /Users/michaelspadoni/Desktop/Various Artists - Extreme Clubhits IV [FLAC]/08 Aviador Dro - Ella Perdio El Control.flac
    Pre-gap length : 00:00:34
    Track gain               : -4.62 dB
    Peak                     : 1.000000
    CRC32 hash (test run)    : E60EF439
    CRC32 hash               : E60EF439
    CRC32 hash (skip zero)   : F6D15502
    AccurateRip v1 signature : 31B57C12
    AccurateRip v2 signature : 5948F955
        ->Track not present in AccurateRip database.
    Statistics
        Read error                           : 0
        Jitter error (maybe fixed)           : 0
        Retry sector count                   : 0
        Damaged sector count                 : 0
Track 09
    Filename : /Users/michaelspadoni/Desktop/Various Artists - Extreme Clubhits IV [FLAC]/09 The Fair Sex - Helpless Fall.flac
    Track gain               : -5.54 dB
    Peak                     : 0.656891
    CRC32 hash (test run)    : 052DD130
    CRC32 hash               : 052DD130
    CRC32 hash (skip zero)   : 5AF44210
    AccurateRip v1 signature : 1D3FADFA
    AccurateRip v2 signature : CCC101E3
        ->Track not present in AccurateRip database.
    Statistics
        Read error                           : 0
        Jitter error (maybe fixed)           : 0
        Retry sector count                   : 0
        Damaged sector count                 : 0
Track 10
    Filename : /Users/michaelspadoni/Desktop/Various Artists - Extreme Clubhits IV [FLAC]/10 Michael Cretu - Total Normal (7" Version).flac
    Pre-gap length : 00:01:01
    Track gain               : -6.32 dB
    Peak                     : 0.944000
    CRC32 hash (test run)    : 9FA129A6
    CRC32 hash               : 9FA129A6
    CRC32 hash (skip zero)   : 57FF094A
    AccurateRip v1 signature : 44F8B5F7
    AccurateRip v2 signature : A562062F
        ->Track not present in AccurateRip database.
    Statistics
        Read error                           : 0
        Jitter error (maybe fixed)           : 0
        Retry sector count                   : 0
        Damaged sector count                 : 0
Track 11
    Filename : /Users/michaelspadoni/Desktop/Various Artists - Extreme Clubhits IV [FLAC]/11 Invisible Limits - Love Will Tear Us Apart (Singlemix).flac
    Pre-gap length : 00:00:07
    Track gain               : -5.62 dB
    Peak                     : 0.797180
    CRC32 hash (test run)    : 74C8B42A
    CRC32 hash               : 74C8B42A
    CRC32 hash (skip zero)   : B7FADE16
    AccurateRip v1 signature : 8BF11AA3
    AccurateRip v2 signature : 6444A4D3
        ->Track not present in AccurateRip database.
    Statistics
        Read error                           : 0
        Jitter error (maybe fixed)           : 0
        Retry sector count                   : 0
        Damaged sector count                 : 0
Track 12
    Filename : /Users/michaelspadoni/Desktop/Various Artists - Extreme Clubhits IV [FLAC]/12 Pink Turns Blue - Your Master Is Calling (Version II).flac
    Track gain               : -5.55 dB
    Peak                     : 0.738922
    CRC32 hash (test run)    : 8FDBC655
    CRC32 hash               : 8FDBC655
    CRC32 hash (skip zero)   : 2BACBC39
    AccurateRip v1 signature : 73AE6DD6
    AccurateRip v2 signature : ED927C22
        ->Track not present in AccurateRip database.
    Statistics
        Read error                           : 0
        Jitter error (maybe fixed)           : 0
        Retry sector count                   : 0
        Damaged sector count                 : 0
Track 13
    Filename : /Users/michaelspadoni/Desktop/Various Artists - Extreme Clubhits IV [FLAC]/13 Escape With Romeo - Somebody.flac
    Track gain               : -4.61 dB
    Peak                     : 1.000000
    CRC32 hash (test run)    : D7F3813D
    CRC32 hash               : D7F3813D
    CRC32 hash (skip zero)   : 32D1B058
    AccurateRip v1 signature : D8034DCB
    AccurateRip v2 signature : 19137737
        ->Track not present in AccurateRip database.
    Statistics
        Read error                           : 0
        Jitter error (maybe fixed)           : 0
        Retry sector count                   : 0
        Damaged sector count                 : 0
Track 14
    Filename : /Users/michaelspadoni/Desktop/Various Artists - Extreme Clubhits IV [FLAC]/14 Cosmicity - Awake.flac
    Pre-gap length : 00:00:01
    Track gain               : -3.60 dB
    Peak                     : 0.750824
    CRC32 hash (test run)    : 90DE3B8E
    CRC32 hash               : 90DE3B8E
    CRC32 hash (skip zero)   : EC267CAC
    AccurateRip v1 signature : 78B325AE
    AccurateRip v2 signature : 23B14BED
        ->Track not present in AccurateRip database.
    Statistics
        Read error                           : 0
        Jitter error (maybe fixed)           : 0
        Retry sector count                   : 0
        Damaged sector count                 : 0
Track 15
    Filename : /Users/michaelspadoni/Desktop/Various Artists - Extreme Clubhits IV [FLAC]/15 Alphaville - A Victory Of Love.flac
    Pre-gap length : 00:00:01
    Track gain               : -6.43 dB
    Peak                     : 0.752625
    CRC32 hash (test run)    : 3CB36718
    CRC32 hash               : 3CB36718
    CRC32 hash (skip zero)   : 010B5597
    AccurateRip v1 signature : 98CB1FBC
    AccurateRip v2 signature : 68E1F5E7
        ->Track not present in AccurateRip database.
    Statistics
        Read error                           : 0
        Jitter error (maybe fixed)           : 0
        Retry sector count                   : 0
        Damaged sector count                 : 0
No errors occurred
End of status report
Код:
REM DATE 2000
PERFORMER "Various Artists"
TITLE "Extreme Clubhits IV"
REM DISCID DF123B0F
FILE "01. Das Ich - Destillat (VNV Nation Remix).flac" WAVE
  TRACK 01 AUDIO
    TITLE "Destillat (VNV Nation Remix)"
    PERFORMER "Das Ich"
    INDEX 01 00:00:00
FILE "02. Funker Vogt - Gunman (Crossed).flac" WAVE
  TRACK 02 AUDIO
    TITLE "Gunman (Crossed)"
    PERFORMER "Funker Vogt"
    INDEX 01 00:00:00
FILE "03. Apoptygma Berzerk - Eclipse (Dimension D Remix).flac" WAVE
  TRACK 03 AUDIO
    TITLE "Eclipse (Dimension D Remix)"
    PERFORMER "Apoptygma Berzerk"
    INDEX 01 00:00:00
  TRACK 04 AUDIO
    TITLE "Dead Stars (Radio Version)"
    PERFORMER "Covenant"
    INDEX 00 06:16:42
FILE "04. Covenant - Dead Stars (Radio Version).flac" WAVE
    INDEX 01 00:00:00
  TRACK 05 AUDIO
    TITLE "She Left (Radio Version)"
    PERFORMER "C-Tec"
    INDEX 00 04:08:22
FILE "05. C-Tec - She Left (Radio Version).flac" WAVE
    INDEX 01 00:00:00
FILE "06. Shock Therapy - Blood on Your Hands.flac" WAVE
  TRACK 06 AUDIO
    TITLE "Blood on Your Hands"
    PERFORMER "Shock Therapy"
    INDEX 01 00:00:00
FILE "07. And One - Metalhammer.flac" WAVE
  TRACK 07 AUDIO
    TITLE "Metalhammer"
    PERFORMER "And One"
    INDEX 01 00:00:00
  TRACK 08 AUDIO
    TITLE "Ella Perdio El Control"
    PERFORMER "Aviador Dro"
    INDEX 00 05:22:04
FILE "08. Aviador Dro - Ella Perdio El Control.flac" WAVE
    INDEX 01 00:00:00
FILE "09. The Fair Sex - Helpless Fall.flac" WAVE
  TRACK 09 AUDIO
    TITLE "Helpless Fall"
    PERFORMER "The Fair Sex"
    INDEX 01 00:00:00
  TRACK 10 AUDIO
    TITLE "Total Normal (7" Version)"
    PERFORMER "Michael Cretu"
    INDEX 00 04:23:57
FILE "10. Michael Cretu - Total Normal (7'' Version).flac" WAVE
    INDEX 01 00:00:00
  TRACK 11 AUDIO
    TITLE "Love Will Tear Us Apart (Singl Mix)"
    PERFORMER "Invisible Limits"
    INDEX 00 03:52:48
FILE "11. Invisible Limits - Love Will Tear Us Apart (Single Mix).flac" WAVE
    INDEX 01 00:00:00
FILE "12. Pink Turns Blue - Your Master Is Calling (Version II).flac" WAVE
  TRACK 12 AUDIO
    TITLE "Your Master Is Calling (Version II)"
    PERFORMER "Pink Turns Blue"
    INDEX 01 00:00:00
FILE "13. Escape With Romeo - Somebody.flac" WAVE
  TRACK 13 AUDIO
    TITLE "Somebody"
    PERFORMER "Escape With Romeo"
    INDEX 01 00:00:00
  TRACK 14 AUDIO
    TITLE "Awake"
    PERFORMER "Cosmicity"
    INDEX 00 05:28:10
FILE "14. Cosmicity - Awake.flac" WAVE
    INDEX 01 00:00:00
  TRACK 15 AUDIO
    TITLE "A Victory of Love"
    PERFORMER "Alphaville"
    INDEX 00 04:04:40
FILE "15 Alphaville - A Victory of Love.flac" WAVE
    INDEX 01 00:00:00
Правила, инструкции, FAQ!!!
Торрент  Добавлен [26 июн 2020, 17:40] Скачать торрент Магнет ссылка
Скачать торрент
[ Размер 11.9 КБ / Просмотров 9 ]

Статус
Проверен 
 
Размер  518.19 МБ
Приватный: Нет (DHT включён)
.torrent скачан  0
 


     Отправить личное сообщение
   
Страница 1 из 1
Показать сообщения за:  Поле сортировки  
Начать новую тему Ответить на тему


Сейчас этот форум просматривают: нет зарегистрированных пользователей и гости: 0


Вы не можете начинать темы
Вы не можете отвечать на сообщения
Вы не можете редактировать свои сообщения
Вы не можете удалять свои сообщения
Вы не можете добавлять вложения

Перейти:  
cron