Начать новую тему Ответить на тему
Статистика раздачи
Размер: 355.3 МБ | Добавлен: 26 июн 2020, 18:56 | Скачали: 0
Сидеров: 0  [0 байт/сек]    Личеров: 0  [0 байт/сек]
Пред. тема | След. тема 

Автор
Сообщение

СообщениеДобавлено: 26 июн 2020, 18:56 

Ответить с цитатой 

Frontal / Lass Uns Tanzen
Жанр: Electronic, EBM
Носитель: CD
Год издания: 2014
Издатель (лейбл): Emmo.biz Records
Номер по каталогу: EZR 043
Страна: Germany
Аудиокодек: FLAC (*.flac)
Тип рипа: image .cue
Битрейт аудио: lossless
Продолжительность: 00:47:55
Источник (релизер): СПАМ
Наличие сканов в содержимом раздачи: да
Треклист:
01. Sei Stark
02. Kuss Mich
03. Lass Uns Tanzen
04. Ich Kann's Nicht Lassen
05. I-Generation
06. Kurz Nach Vier
07. Heute Nacht
08. An Der Bar
09. Winterzeit
10. Das Was War
11. Lass Uns Tanzen (Orange Sector Remix)
12. Ich Kann's Nicht Lassen (Neu Interpretiert Von Jager 90)
Код:
Exact Audio Copy V1.0 beta 3 from 29. August 2011
Отчёт EAC об извлечении, выполненном 17. апреля 2014, 10:46
Frontal / Lass Uns Tanzen
Дисковод: PIONEER DVD-RW  DVR-XD10   Adapter: 1  ID: 0
Режим чтения                 : Достоверность
Использование точного потока : Да
Отключение кэша аудио        : Да
Использование указателей C2  : Нет
Коррекция смещения при чтении                     : 96
Способность читать области Lead-in и Lead-out     : Нет
Заполнение пропущенных сэмплов тишиной            : Да
Удаление блоков с тишиной в начале и конце        : Нет
При вычислениях CRC использовались нулевые сэмплы : Да
Интерфейс                                         : Встроенный Win32-интерфейс для Win NT/2000
Выходной формат          : Пользовательский кодировщик
Выбранный битрейт        : 1024 kBit/s
Качество                 : Высокий
Добавление ID3-тега      : Нет
Утилита сжатия           : C:\Program Files (x86)\Exact Audio Copy\FLAC\FLAC.EXE
Дополнительные параметры : -V -8 -T "Date=%year%" -T "Genre=%genre%" -T "Comment=ripped by termoflex" %source%
TOC извлечённого CD
     Трек |   Старт  | Длительность | Начальный сектор | Конечный сектор
    ---------------------------------------------------------------------
       1  |  0:00.00 |    5:25.20   |           0      |      24394
       2  |  5:25.20 |    3:04.30   |       24395      |      38224
       3  |  8:29.50 |    4:09.29   |       38225      |      56928
       4  | 12:39.04 |    3:45.14   |       56929      |      73817
       5  | 16:24.18 |    4:05.71   |       73818      |      92263
       6  | 20:30.14 |    4:07.41   |       92264      |     110829
       7  | 24:37.55 |    3:55.44   |      110830      |     128498
       8  | 28:33.24 |    3:13.47   |      128499      |     143020
       9  | 31:46.71 |    4:10.40   |      143021      |     161810
      10  | 35:57.36 |    4:11.07   |      161811      |     180642
      11  | 40:08.43 |    3:55.41   |      180643      |     198308
      12  | 44:04.09 |    3:49.53   |      198309      |     215536
Характеристики диапазона извлечения и сообщения об ошибках
Выбранный диапазон
     Имя файла C:\Users\HP\Music\Frontal - Lass Uns Tanzen.wav
     Пиковый уровень 98.9 %
     Скорость извлечения 3.9 X
     Качество диапазона 99.9 %
     CRC теста 08063FD4
     CRC копии 08063FD4
     Копирование... OK
Ошибок не произошло
AccurateRip: сводка
Трек  1  отсутствует в базе данных
Трек  2  отсутствует в базе данных
Трек  3  отсутствует в базе данных
Трек  4  отсутствует в базе данных
Трек  5  отсутствует в базе данных
Трек  6  отсутствует в базе данных
Трек  7  отсутствует в базе данных
Трек  8  отсутствует в базе данных
Трек  9  отсутствует в базе данных
Трек 10  отсутствует в базе данных
Трек 11  отсутствует в базе данных
Трек 12  отсутствует в базе данных
Ни одного трека нет в базе AccurateRip
Конец отчёта
---- CUETools DB Plugin V2.1.4
[CTDB TOCID: F1QyZSJyKA1qcEQ5qAKQVVbCyxM-] disk not present in database
Submit result: F1QyZSJyKA1qcEQ5qAKQVVbCyxM- has been uploaded
==== Контрольная сумма отчёта 60596C3CFD7A9A27D11EE57257A6F93E97DFDE3056F639B4793F47A5FD252D58 ====
Код:
REM GENRE EBM
REM DATE 2014
REM DISCID A10B390C
REM COMMENT "ExactAudioCopy v1.0b3"
PERFORMER "Frontal"
TITLE "Lass Uns Tanzen"
FILE "Frontal - Lass Uns Tanzen.flac" WAVE
  TRACK 01 AUDIO
    TITLE "Sei Stark"
    PERFORMER "Frontal"
    INDEX 01 00:00:00
  TRACK 02 AUDIO
    TITLE "Kuss Mich "
    PERFORMER "Frontal"
    INDEX 00 05:23:21
    INDEX 01 05:25:20
  TRACK 03 AUDIO
    TITLE "Lass Uns Tanzen "
    PERFORMER "Frontal"
    INDEX 00 08:27:51
    INDEX 01 08:29:50
  TRACK 04 AUDIO
    TITLE "Ich Kann's Nicht Lassen "
    PERFORMER "Frontal"
    INDEX 00 12:37:05
    INDEX 01 12:39:04
  TRACK 05 AUDIO
    TITLE "I-Generation "
    PERFORMER "Frontal"
    INDEX 00 16:22:19
    INDEX 01 16:24:18
  TRACK 06 AUDIO
    TITLE "Kurz Nach Vier "
    PERFORMER "Frontal"
    INDEX 00 20:28:15
    INDEX 01 20:30:14
  TRACK 07 AUDIO
    TITLE "Heute Nacht"
    PERFORMER "Frontal"
    INDEX 00 24:35:56
    INDEX 01 24:37:55
  TRACK 08 AUDIO
    TITLE "An Der Bar "
    PERFORMER "Frontal"
    INDEX 00 28:31:25
    INDEX 01 28:33:24
  TRACK 09 AUDIO
    TITLE "Winterzeit "
    PERFORMER "Frontal"
    INDEX 00 31:44:72
    INDEX 01 31:46:71
  TRACK 10 AUDIO
    TITLE "Das Was War "
    PERFORMER "Frontal"
    INDEX 00 35:55:37
    INDEX 01 35:57:36
  TRACK 11 AUDIO
    TITLE "Lass Uns Tanzen (Orange Sector Remix) "
    PERFORMER "Frontal"
    INDEX 00 40:06:44
    INDEX 01 40:08:43
  TRACK 12 AUDIO
    TITLE "Ich Kann's Nicht Lassen (Neu Interpretiert Von Jager 90) "
    PERFORMER "Frontal"
    INDEX 00 44:02:10
    INDEX 01 44:04:09
Код:
-----------------------
DON'T MODIFY THIS FILE
-----------------------
PERFORMER: auCDtect Task Manager, ver. 1.6.0 RC1 build 1.6.0.1
Copyright (c) 2008-2010 y-soft. All rights reserved
[url=http://y-soft.org]http://y-soft.org[/url]
ANALYZER: auCDtect: CD records authenticity detector, version 0.8.2
Copyright (c) 2004 Oleg Berngardt. All rights reserved.
Copyright (c) 2004 Alexander Djourik. All rights reserved.
FILE: Frontal - Lass Uns Tanzen.flac
  Size: 341708443 Hash: F8A248B4202A82D91968EFE0CDDCBF50 Accuracy: -m0
  Conclusion: CDDA 100%
  Signature: EBF3F778032F0A3C389EC166C9007BAB18F4F607
Правила, инструкции, FAQ!!!
Торрент  Добавлен [26 июн 2020, 18:56] Скачать торрент Магнет ссылка
Скачать торрент
[ Размер 14.99 КБ / Просмотров 5 ]

Статус
Проверен 
 
Размер  355.3 МБ
Приватный: Нет (DHT включён)
.torrent скачан  0
 


     Отправить личное сообщение
   
Страница 1 из 1
Показать сообщения за:  Поле сортировки  
Начать новую тему Ответить на тему


Сейчас этот форум просматривают: нет зарегистрированных пользователей и гости: 0


Вы не можете начинать темы
Вы не можете отвечать на сообщения
Вы не можете редактировать свои сообщения
Вы не можете удалять свои сообщения
Вы не можете добавлять вложения

Перейти:  
cron