Начать новую тему Ответить на тему
Статистика раздачи
Размер: 309.58 МБ | Добавлен: 26 июн 2020, 17:39 | Скачали: 0
Сидеров: 0  [0 байт/сек]    Личеров: 0  [0 байт/сек]
Пред. тема | След. тема 

Автор
Сообщение

СообщениеДобавлено: 26 июн 2020, 17:39 

Ответить с цитатой 

Frontal / EBM-Freundschaft
Жанр: Electronic / EBM
Страна-производитель диска: Germany
Год издания диска: 2008
Издатель (лейбл): Electric Tremor Dessau, Zero01one
Номер по каталогу: ETD CDR 009, ZOET-013
Формат: CDr
Страна: Germany
Аудио кодек: FLAC (*.flac)
Тип рипа: image+.cue
Битрейт аудио: lossless
Продолжительность: 0:41:13.02
Источник (релизер): Физический носитель (Собственный рип с оригинала).
Наличие сканов в содержимом раздачи: да
Треклист:
01. Schleichfahrt [3:03]
02. Du [3:14]
03. Sorglos [3:5]
04. Vorwärts [3:54]
05. Ein Letztes Mal [3:5]
06. Muskelkraft [3:25]
07. Keine Zukunft [3:35]
08. Beweg Dich [3:09]
09. Soldaten [3:05]
10. EBM-Freundschaft [4:00]
11. Denk Das Ist Okay (Jäger 90 Cover) [2:43]
12. Kämpfe (Zentrum Der Arbeit Cover) [3:25]
Код:
Exact Audio Copy V1.0 beta 3 from 29. August 2011
EAC extraction logfile from 11. February 2012, 18:27
Frontal / EBM-Freundschaft
Used drive  : PLEXTOR BDDVDR PX-B320SA   Adapter: 0  ID: 2
Read mode               : Secure
Utilize accurate stream : Yes
Defeat audio cache      : Yes
Make use of C2 pointers : No
Read offset correction                      : 6
Overread into Lead-In and Lead-Out          : No
Fill up missing offset samples with silence : Yes
Delete leading and trailing silent blocks   : No
Null samples used in CRC calculations       : Yes
Used interface                              : Native Win32 interface for Win NT & 2000
Used output format              : User Defined Encoder
Selected bitrate                : 128 kBit/s
Quality                         : High
Add ID3 tag                     : No
Command line compressor         : C:\Program Files (x86)\FLAC\flac.exe
Additional command line options : -V -8 -T "Date=%year%" -T "Genre=%genre%" %source%
TOC of the extracted CD
     Track |   Start  |  Length  | Start sector | End sector
    ---------------------------------------------------------
        1  |  0:00.00 |  3:03.32 |         0    |    13756
        2  |  3:03.32 |  3:14.08 |     13757    |    28314
        3  |  6:17.40 |  3:50.08 |     28315    |    45572
        4  | 10:07.48 |  3:53.40 |     45573    |    63087
        5  | 14:01.13 |  3:50.08 |     63088    |    80345
        6  | 17:51.21 |  3:24.58 |     80346    |    95703
        7  | 21:16.04 |  3:35.32 |     95704    |   111860
        8  | 24:51.36 |  3:08.68 |    111861    |   126028
        9  | 28:00.29 |  3:05.07 |    126029    |   139910
       10  | 31:05.36 |  3:59.44 |    139911    |   157879
       11  | 35:05.05 |  2:42.40 |    157880    |   170069
       12  | 37:47.45 |  3:25.32 |    170070    |   185476
Range status and errors
Selected range
     Filename D:\Frontal - EBM-Freundschaft (2008)\Frontal - EBM-Freundschaft.wav
     Peak level 100.0 %
     Extraction speed 3.3 X
     Range quality 100.0 %
     Test CRC B13674F6
     Copy CRC B13674F6
     Copy OK
No errors occurred
AccurateRip summary
Track  1  not present in database
Track  2  not present in database
Track  3  not present in database
Track  4  not present in database
Track  5  not present in database
Track  6  not present in database
Track  7  not present in database
Track  8  not present in database
Track  9  not present in database
Track 10  not present in database
Track 11  not present in database
Track 12  not present in database
None of the tracks are present in the AccurateRip database
End of status report
==== Log checksum 43C83A290F4BFB55B7D5C2CF38A461C9D68058FC29CFF0CE3AF387B2F1ACFB0C ====
Доп. информация: Дебютный альбом. На Сидиаре. Просьба, в апконверте не обвинять, рип с оригинала, существует другой вариант (CDr, Not on Label, Self-release, с идентичным содержанием), но он не лучше.
Выкладываю, что называется: "как есть". Поскольку банда, на тот момент, была "полуподпольная" и дебютник писался и сводился "абы-где", существует "проблема мпега", хотя на спектрах всё выглядит более или менее пристойно и звук, в общем-то, не плохой.
Интересный ляп: на самой болванке надпись с названием альбома сделана с опечаткой, пропущена одна буква. Самих дисков было сделано немного (официальных данных нет, скорее - не больше сотни). Упаковка: полиэтиленовый конверт и двусторонняя картонка-вкладыш.
Правила, инструкции, FAQ!!!
Торрент  Добавлен [26 июн 2020, 17:39] Скачать торрент Магнет ссылка
Скачать торрент
[ Размер 13 КБ / Просмотров 12 ]

Статус
Проверен 
 
Размер  309.58 МБ
Приватный: Нет (DHT включён)
.torrent скачан  0
 


     Отправить личное сообщение
   
Страница 1 из 1
Показать сообщения за:  Поле сортировки  
Начать новую тему Ответить на тему


Сейчас этот форум просматривают: нет зарегистрированных пользователей и гости: 0


Вы не можете начинать темы
Вы не можете отвечать на сообщения
Вы не можете редактировать свои сообщения
Вы не можете удалять свои сообщения
Вы не можете добавлять вложения

Перейти:  
cron