Начать новую тему Ответить на тему
Статистика раздачи
Размер: 388.41 МБ | Добавлен: 26 июн 2020, 16:58 | Скачали: 0
Сидеров: 0  [0 байт/сек]    Личеров: 0  [0 байт/сек]
Пред. тема | След. тема 

Автор
Сообщение

СообщениеДобавлено: 26 июн 2020, 16:58 

Ответить с цитатой 

Frontal / Alles Lüge
Жанр: Electronic / EBM
Страна-производитель диска: Germany
Год издания диска: 2010
Издатель (лейбл): Not On Label
Номер по каталогу: none
Формат: CD, Album
Страна: Germany
Аудио кодек: FLAC (*.flac)
Тип рипа: image+.cue
Битрейт аудио: lossless
Продолжительность: 0:39:35.69
Источник (релизер): Физический носитель (Собственный рип с оригинала).
Наличие сканов в содержимом раздачи: да
Треклист:
01. Wir Sind Wieder Da [3:31]
02. Keine Lust [4:08]
03. Laufen [3:58]
04. Durchzechte Nacht [4:40]
05. Zeig Mir [3:40]
06. Harte Arbeit [3:35]
07. Wo Bist Du [4:05]
08. Alles Lüge [4:26]
09. Was Willst Du Denn Von Mir [3:19]
10. Aus Und Vorbei [4:14]
Код:
Exact Audio Copy V1.0 beta 3 from 29. August 2011
EAC extraction logfile from 11. February 2012, 23:16
Frontal / Alles Lüge
Used drive  : PLEXTOR BDDVDR PX-B320SA   Adapter: 0  ID: 2
Read mode               : Secure
Utilize accurate stream : Yes
Defeat audio cache      : Yes
Make use of C2 pointers : No
Read offset correction                      : 6
Overread into Lead-In and Lead-Out          : No
Fill up missing offset samples with silence : Yes
Delete leading and trailing silent blocks   : No
Null samples used in CRC calculations       : Yes
Used interface                              : Native Win32 interface for Win NT & 2000
Used output format              : User Defined Encoder
Selected bitrate                : 128 kBit/s
Quality                         : High
Add ID3 tag                     : No
Command line compressor         : C:\Program Files (x86)\FLAC\flac.exe
Additional command line options : -V -8 -T "Date=%year%" -T "Genre=%genre%" %source%
TOC of the extracted CD
     Track |   Start  |  Length  | Start sector | End sector
    ---------------------------------------------------------
        1  |  0:00.00 |  3:31.37 |         0    |    15861
        2  |  3:31.37 |  4:08.10 |     15862    |    34471
        3  |  7:39.47 |  3:58.32 |     34472    |    52353
        4  | 11:38.04 |  4:39.50 |     52354    |    73328
        5  | 16:17.54 |  3:39.62 |     73329    |    89815
        6  | 19:57.41 |  3:34.60 |     89816    |   105925
        7  | 23:32.26 |  4:04.45 |    105926    |   124270
        8  | 27:36.71 |  4:26.17 |    124271    |   144237
        9  | 32:03.13 |  3:18.40 |    144238    |   159127
       10  | 35:21.53 |  4:13.74 |    159128    |   178176
Range status and errors
Selected range
     Filename D:\Frontal - Alles Luge (2010)\Frontal - Alles Luge.wav
     Peak level 98.9 %
     Extraction speed 7.3 X
     Range quality 100.0 %
     Test CRC EF3296C6
     Copy CRC EF3296C6
     Copy OK
No errors occurred
AccurateRip summary
Track  1  accurately ripped (confidence 3)  [B3C492A4]  (AR v1)
Track  2  accurately ripped (confidence 3)  [51A594DA]  (AR v1)
Track  3  accurately ripped (confidence 3)  [B530B037]  (AR v1)
Track  4  accurately ripped (confidence 2)  [EE57A414]  (AR v1)
Track  5  accurately ripped (confidence 3)  [625E67DC]  (AR v1)
Track  6  accurately ripped (confidence 3)  [AF4554D2]  (AR v1)
Track  7  accurately ripped (confidence 2)  [7A9EA336]  (AR v1)
Track  8  accurately ripped (confidence 3)  [277EEB3E]  (AR v1)
Track  9  accurately ripped (confidence 3)  [81F3C0DF]  (AR v1)
Track 10  accurately ripped (confidence 3)  [883C0061]  (AR v1)
All tracks accurately ripped
End of status report
==== Log checksum 914814E34C47BEFCE4C768F121AFFA609F3B5C2AAE810F8FE986ECD5AD362774 ====
Приятного прослушивания !
Правила, инструкции, FAQ!!!
Торрент  Добавлен [26 июн 2020, 16:58] Скачать торрент Магнет ссылка
Скачать торрент
[ Размер 16.08 КБ / Просмотров 6 ]

Статус
Проверен 
 
Размер  388.41 МБ
Приватный: Нет (DHT включён)
.torrent скачан  0
 


     Отправить личное сообщение
   
Страница 1 из 1
Показать сообщения за:  Поле сортировки  
Начать новую тему Ответить на тему


Сейчас этот форум просматривают: нет зарегистрированных пользователей и гости: 0


Вы не можете начинать темы
Вы не можете отвечать на сообщения
Вы не можете редактировать свои сообщения
Вы не можете удалять свои сообщения
Вы не можете добавлять вложения

Перейти:  
cron