Начать новую тему Ответить на тему
Статистика раздачи
Размер: 518.88 МБ | Добавлен: 26 июн 2020, 17:38 | Скачали: 0
Сидеров: 0  [0 байт/сек]    Личеров: 0  [0 байт/сек]
Пред. тема | След. тема 

Автор
Сообщение

СообщениеДобавлено: 26 июн 2020, 17:38 

Ответить с цитатой 

Metropolis 2004
Жанр: Electronic, EBM, Electro, Synthpop, Industrial
Носитель: CD
Страна-производитель диска (релиза): U.S.
Год издания: 2004
Издатель (лейбл): Metropolis
Номер по каталогу: MET 9005
Аудиокодек: FLAC (*.flac)
Тип рипа: tracks+.cue
Битрейт аудио: lossless
Продолжительность: 01:14:25
Источник (релизер): Ripper
Наличие сканов в содержимом раздачи: нет
Треклист:
1. Icon of Coil - Consumer (Static Version)
2. Mono Chrome - Sold
3. The Retrosic - The Storm
4. Front Line Assembly - Psychosomatic
5. Fixmer/McCarthy - Destroy
6. Bella Morte - Another Way
7. :wumpscut: - Your Last Salute (Air Forge Remix)
8. Informatik - The World Belongs to Us
9. Assemblage 23 - Let the Wind Erase Me
10. Imperative Reaction - Giving in to the Change (Wasted Time Mix)
11. Velvet Acid Christ - Collaped
12. Cesium_137 - Frayed
13. Grendel - Crucify
14. Punto Omega - Punto Omega
Код:
Exact Audio Copy V1.0 beta 3 from 29. August 2011
EAC extraction logfile from 8. February 2012, 22:50
Various Artists / Metropolis 2004
Used drive  : TSSTcorpCDDVDW TS-L633C   Adapter: 0  ID: 1
Read mode               : Secure
Utilize accurate stream : Yes
Defeat audio cache      : Yes
Make use of C2 pointers : No
Read offset correction                      : 6
Overread into Lead-In and Lead-Out          : No
Fill up missing offset samples with silence : Yes
Delete leading and trailing silent blocks   : No
Null samples used in CRC calculations       : Yes
Used interface                              : Native Win32 interface for Win NT & 2000
Gap handling                                : Appended to previous track
Used output format              : User Defined Encoder
Selected bitrate                : 1024 kBit/s
Quality                         : High
Add ID3 tag                     : No
Command line compressor         : C:\Program Files (x86)\Exact Audio Copy\FLAC\FLAC.EXE
Additional command line options : -6 -V -T "ARTIST=%artist%" -T "TITLE=%title%" -T "ALBUM=%albumtitle%" -T "DATE=%year%" -T "TRACKNUMBER=%tracknr%" -T "GENRE=%genre%" -T "COMMENT=%comment%" -T "BAND=%albuminterpret%" -T "ALBUMARTIST=%albuminterpret%" -T "COMPOSER=%composer%" %haslyrics%--tag-from-file=LYRICS="%lyricsfile%"%haslyrics% -T "DISCNUMBER=%cdnumber%" -T "TOTALDISCS=%totalcds%" -T "TOTALTRACKS=%numtracks%" %hascover%--picture="%coverfile%"%hascover% %source% -o %dest%
TOC of the extracted CD
     Track |   Start  |  Length  | Start sector | End sector
    ---------------------------------------------------------
        1  |  0:00.00 |  4:50.09 |         0    |    21758
        2  |  4:50.09 |  6:00.44 |     21759    |    48802
        3  | 10:50.53 |  6:02.45 |     48803    |    75997
        4  | 16:53.23 |  5:37.33 |     75998    |   101305
        5  | 22:30.56 |  6:03.58 |    101306    |   128588
        6  | 28:34.39 |  3:19.74 |    128589    |   143587
        7  | 31:54.38 |  5:46.38 |    143588    |   169575
        8  | 37:41.01 |  5:41.22 |    169576    |   195172
        9  | 43:22.23 |  4:45.53 |    195173    |   216600
       10  | 48:08.01 |  5:03.56 |    216601    |   239381
       11  | 53:11.57 |  6:03.40 |    239382    |   266646
       12  | 59:15.22 |  4:43.39 |    266647    |   287910
       13  | 63:58.61 |  5:40.19 |    287911    |   313429
       14  | 69:39.05 |  4:46.29 |    313430    |   334908
Track  1
     Filename C:\Users\PryorJ\Music\EAC Rips\01 Consumer (Static Version).wav
     Pre-gap length  0:00:02.00
     Peak level 97.7 %
     Extraction speed 1.2 X
     Track quality 100.0 %
     Test CRC 715035CF
     Copy CRC 715035CF
     Accurately ripped (confidence 8)  [E60EB697]  (AR v1)
     Copy OK
Track  2
     Filename C:\Users\PryorJ\Music\EAC Rips\02 Sold.wav
     Pre-gap length  0:00:03.15
     Peak level 97.7 %
     Extraction speed 1.4 X
     Track quality 100.0 %
     Test CRC 71A8F02A
     Copy CRC 71A8F02A
     Accurately ripped (confidence 7)  [03E9BD16]  (AR v1)
     Copy OK
Track  3
     Filename C:\Users\PryorJ\Music\EAC Rips\03 The Storm.wav
     Pre-gap length  0:00:03.30
     Peak level 85.1 %
     Extraction speed 1.6 X
     Track quality 100.0 %
     Test CRC F4978703
     Copy CRC F4978703
     Accurately ripped (confidence 7)  [3E544331]  (AR v1)
     Copy OK
Track  4
     Filename C:\Users\PryorJ\Music\EAC Rips\04 Psychosomatic.wav
     Pre-gap length  0:00:03.10
     Peak level 97.7 %
     Extraction speed 1.7 X
     Track quality 100.0 %
     Test CRC C92E0C93
     Copy CRC C92E0C93
     Accurately ripped (confidence 7)  [6655B5ED]  (AR v1)
     Copy OK
Track  5
     Filename C:\Users\PryorJ\Music\EAC Rips\05 Destroy.wav
     Pre-gap length  0:00:03.25
     Peak level 97.7 %
     Extraction speed 1.8 X
     Track quality 100.0 %
     Test CRC 41B2155E
     Copy CRC 41B2155E
     Accurately ripped (confidence 7)  [EA0777B7]  (AR v1)
     Copy OK
Track  6
     Filename C:\Users\PryorJ\Music\EAC Rips\06 Another Way.wav
     Pre-gap length  0:00:03.35
     Peak level 97.7 %
     Extraction speed 1.8 X
     Track quality 100.0 %
     Test CRC 883B27CB
     Copy CRC 883B27CB
     Accurately ripped (confidence 7)  [5C8914B6]  (AR v1)
     Copy OK
Track  7
     Filename C:\Users\PryorJ\Music\EAC Rips\07 Your Last Salute (Air Forge Remix).wav
     Pre-gap length  0:00:03.00
     Peak level 97.7 %
     Extraction speed 2.0 X
     Track quality 100.0 %
     Test CRC 59EF2207
     Copy CRC 59EF2207
     Accurately ripped (confidence 8)  [9A134A90]  (AR v1)
     Copy OK
Track  8
     Filename C:\Users\PryorJ\Music\EAC Rips\08 The World Belongs to Us.wav
     Pre-gap length  0:00:03.00
     Peak level 97.7 %
     Extraction speed 1.9 X
     Track quality 99.9 %
     Test CRC 1321B06F
     Copy CRC 1321B06F
     Accurately ripped (confidence 7)  [6ADD1D1F]  (AR v1)
     Copy OK
Track  9
     Filename C:\Users\PryorJ\Music\EAC Rips\09 Let the Wind Erase Me.wav
     Pre-gap length  0:00:03.00
     Peak level 97.7 %
     Extraction speed 2.2 X
     Track quality 100.0 %
     Test CRC 702B2EBD
     Copy CRC 702B2EBD
     Accurately ripped (confidence 7)  [76CF8747]  (AR v1)
     Copy OK
Track 10
     Filename C:\Users\PryorJ\Music\EAC Rips\10 Giving Into The Change (Wasted Time Mix).wav
     Pre-gap length  0:00:03.15
     Peak level 97.7 %
     Extraction speed 2.0 X
     Track quality 99.9 %
     Test CRC 9A515D25
     Copy CRC 9A515D25
     Accurately ripped (confidence 8)  [534DB9A3]  (AR v1)
     Copy OK
Track 11
     Filename C:\Users\PryorJ\Music\EAC Rips\11 Collaped.wav
     Pre-gap length  0:00:03.00
     Peak level 97.7 %
     Extraction speed 2.2 X
     Track quality 99.9 %
     Test CRC D9A42D19
     Copy CRC D9A42D19
     Accurately ripped (confidence 7)  [2E1BE590]  (AR v1)
     Copy OK
Track 12
     Filename C:\Users\PryorJ\Music\EAC Rips\12 Frayed.wav
     Pre-gap length  0:00:03.25
     Peak level 96.6 %
     Extraction speed 2.1 X
     Track quality 99.9 %
     Test CRC 0012EC11
     Copy CRC 0012EC11
     Accurately ripped (confidence 7)  [52DE34E5]  (AR v1)
     Copy OK
Track 13
     Filename C:\Users\PryorJ\Music\EAC Rips\13 Crucify.wav
     Pre-gap length  0:00:03.15
     Peak level 97.7 %
     Extraction speed 2.3 X
     Track quality 99.9 %
     Test CRC 7AFA0918
     Copy CRC 7AFA0918
     Accurately ripped (confidence 7)  [D8227870]  (AR v1)
     Copy OK
Track 14
     Filename C:\Users\PryorJ\Music\EAC Rips\14 Punto Omega.wav
     Pre-gap length  0:00:03.00
     Peak level 97.7 %
     Extraction speed 2.5 X
     Track quality 100.0 %
     Test CRC AD3CE6DB
     Copy CRC AD3CE6DB
     Accurately ripped (confidence 7)  [CC9FEAAA]  (AR v1)
     Copy OK
All tracks accurately ripped
No errors occurred
End of status report
---- CUETools DB Plugin V2.1.3
[CTDB TOCID: _Wg7u4i0g_NtV2aZ__YrrHAN_Lo-] database access error: The remote name could not be resolved: 'db.cuetools.net'
==== Log checksum 607D433F852566A69228672568F15891BB2837A7D700BE77AB0E112527E737EE ====
Код:
REM DATE 2004
REM DISCID BB11710E
REM COMMENT "ExactAudioCopy v1.0b3"
PERFORMER "Various Artists"
TITLE "Metropolis 2004"
FILE "01. Icon of Coil - Consumer (Static Version).wav" WAVE
  TRACK 01 AUDIO
    TITLE "Consumer (Static Version)"
    PERFORMER "Icon of Coil"
    INDEX 01 00:00:00
  TRACK 02 AUDIO
    TITLE "Sold"
    PERFORMER "Mono Chrome"
    INDEX 00 04:46:69
FILE "02. Mono Chrome - Sold.wav" WAVE
    INDEX 01 00:00:00
  TRACK 03 AUDIO
    TITLE "The Storm"
    PERFORMER "The Retrosic"
    INDEX 00 05:57:14
FILE "03. The Retrosic - The Storm.wav" WAVE
    INDEX 01 00:00:00
  TRACK 04 AUDIO
    TITLE "Psychosomatic"
    PERFORMER "Front Line Assembly"
    INDEX 00 05:59:35
FILE "04. Front Line Assembly - Psychosomatic.wav" WAVE
    INDEX 01 00:00:00
  TRACK 05 AUDIO
    TITLE "Destroy"
    PERFORMER "Fixmer/McCarthy"
    INDEX 00 05:34:08
FILE "05. Fixmer-McCarthy - Destroy.wav" WAVE
    INDEX 01 00:00:00
  TRACK 06 AUDIO
    TITLE "Another Way"
    PERFORMER "Bella Morte"
    INDEX 00 06:00:23
FILE "06. Bella Morte - Another Way.wav" WAVE
    INDEX 01 00:00:00
  TRACK 07 AUDIO
    TITLE "Your Last Salute (Air Forge Remix)"
    PERFORMER ":wumpscut:"
    INDEX 00 03:16:74
FILE "07. -wumpscut- - Your Last Salute (Air Forge Remix).wav" WAVE
    INDEX 01 00:00:00
  TRACK 08 AUDIO
    TITLE "The World Belongs to Us"
    PERFORMER "Informatik"
    INDEX 00 05:43:38
FILE "08. Informatik - The World Belongs to Us.wav" WAVE
    INDEX 01 00:00:00
  TRACK 09 AUDIO
    TITLE "Let the Wind Erase Me"
    PERFORMER "Assemblage 23"
    INDEX 00 05:38:22
FILE "09. Assemblage 23 - Let the Wind Erase Me.wav" WAVE
    INDEX 01 00:00:00
  TRACK 10 AUDIO
    TITLE "Giving in to the Change (Wasted Time Mix)"
    PERFORMER "Imperative Reaction"
    INDEX 00 04:42:38
FILE "10. Imperative Reaction - Giving in to the Change (Wasted Time Mix).wav" WAVE
    INDEX 01 00:00:00
  TRACK 11 AUDIO
    TITLE "Collaped"
    PERFORMER "Velvet Acid Christ"
    INDEX 00 05:00:56
FILE "11. Velvet Acid Christ - Collaped.wav" WAVE
    INDEX 01 00:00:00
  TRACK 12 AUDIO
    TITLE "Frayed"
    PERFORMER "Cesium_137"
    INDEX 00 06:00:15
FILE "12. Cesium_137 - Frayed.wav" WAVE
    INDEX 01 00:00:00
  TRACK 13 AUDIO
    TITLE "Crucify"
    PERFORMER "Grendel"
    INDEX 00 04:40:24
FILE "13. Grendel - Crucify.wav" WAVE
    INDEX 01 00:00:00
  TRACK 14 AUDIO
    TITLE "Punto Omega"
    PERFORMER "Punto Omega"
    INDEX 00 05:37:19
FILE "14. Punto Omega - Punto Omega.wav" WAVE
    INDEX 01 00:00:00
Правила, инструкции, FAQ!!!
Торрент  Добавлен [26 июн 2020, 17:38] Скачать торрент Магнет ссылка
Скачать торрент
[ Размер 11.75 КБ / Просмотров 9 ]

Статус
Проверен 
 
Размер  518.88 МБ
Приватный: Нет (DHT включён)
.torrent скачан  0
 


     Отправить личное сообщение
   
Страница 1 из 1
Показать сообщения за:  Поле сортировки  
Начать новую тему Ответить на тему


Сейчас этот форум просматривают: нет зарегистрированных пользователей и гости: 0


Вы не можете начинать темы
Вы не можете отвечать на сообщения
Вы не можете редактировать свои сообщения
Вы не можете удалять свои сообщения
Вы не можете добавлять вложения

Перейти:  
cron