Начать новую тему Ответить на тему
Статистика раздачи
Размер: 556.03 МБ | Добавлен: 26 июн 2020, 20:17 | Скачали: 0
Сидеров: 0  [0 байт/сек]    Личеров: 0  [0 байт/сек]
Пред. тема | След. тема 

Автор
Сообщение

СообщениеДобавлено: 26 июн 2020, 20:17 

Ответить с цитатой 

Dependence: Next Level Electronics 2013
Жанр: Electronic, EBM, Electro, Synth-pop, Industrial
Носитель: CD
Страна-производитель диска (релиза): Germany
Год издания: 2013
Издатель (лейбл): Dependence Records
Номер по каталогу: mind 212
Аудиокодек: FLAC (*.flac)
Тип рипа: tracks+.cue
Битрейт аудио: lossless
Продолжительность: 01:19:41
Источник (релизер): what.cd, z0mbieparade
Наличие сканов в содержимом раздачи: нет
Треклист:
1. Ghost & Writer - Never Take Fire (Secret Re-Work)
2. Covenant - For Our Time (Demo Version)
3. Click Click - What Do You Want?
4. Pride & Fall - Hollow (SITD Remix)
5. Encephalon - Desertropolis
6. Velvet Acid Christ - Inhale Blood
7. Mesh - Pefect Idea of Beauty
8. Acretongue - These Soft Machines (Haujobb Remix)
9. Frontline Assembly - Ghosts (Greg Reely Alternative Mix)
10. Decoded Feedback - Blasphemy
11. Seabound - Nothing But Love
12. Skinny Puppy - Deadlines (Live in Bratislava)
13. Chrysalide - 2010 (Sonic Area Mix)
14. KMFDM - I (Heart) Not
15. Clicks - On Speed (Not on Disk)
16. Veil Veil Vanish - Exile City
Код:
X Lossless Decoder version 20130720 (144.0)
XLD extraction logfile from 2013-09-13 21:28:31 -0600
Various Artists / Dependence 2013
Used drive : MATSHITA DVD-R   UJ-8A8 (revision HB14)
Media type : Pressed CD
Ripper mode             : XLD Secure Ripper
Disable audio cache     : OK for the drive with a cache less than 1375KiB
Make use of C2 pointers : NO
Read offset correction  : 102
Max retry count         : 20
Gap status              : Analyzed, Appended (except HTOA)
TOC of the extracted CD
     Track |   Start  |  Length  | Start sector | End sector
    ---------------------------------------------------------
        1  | 00:00:00 | 07:39:25 |         0    |    34449
        2  | 07:39:25 | 04:17:40 |     34450    |    53764
        3  | 11:56:65 | 06:45:21 |     53765    |    84160
        4  | 18:42:11 | 05:46:54 |     84161    |   110164
        5  | 24:28:65 | 04:54:22 |    110165    |   132236
        6  | 29:23:12 | 04:52:65 |    132237    |   154201
        7  | 34:16:02 | 01:42:36 |    154202    |   161887
        8  | 35:58:38 | 05:29:48 |    161888    |   186610
        9  | 41:28:11 | 04:41:08 |    186611    |   207693
       10  | 46:09:19 | 06:11:40 |    207694    |   235558
       11  | 52:20:59 | 05:29:66 |    235559    |   260299
       12  | 57:50:50 | 06:13:58 |    260300    |   288332
       13  | 64:04:33 | 03:22:41 |    288333    |   303523
       14  | 67:26:74 | 03:55:65 |    303524    |   321213
       15  | 71:22:64 | 04:32:63 |    321214    |   341676
       16  | 75:55:52 | 03:45:15 |    341677    |   358566
AccurateRip Summary
    Disc not found in AccurateRip DB.
All Tracks
    Album gain               : -8.46 dB
    Peak                     : 0.988464
    Statistics
        Read error                           : 0
        Jitter error (maybe fixed)           : 0
        Retry sector count                   : 33
        Damaged sector count                 : 0
Track 01
    Filename : /Users/mdalbey/Music/XLD/Various Artists - Dependence 2013 [V0]/01 - Ghost & Writer - Never Take Fire (Secret Re-Work).mp3
               /Users/mdalbey/Music/XLD/Various Artists - Dependence 2013 [V2]/01 - Ghost & Writer - Never Take Fire (Secret Re-Work).mp3
               /Users/mdalbey/Music/XLD/Various Artists - Dependence 2013 [320]/01 - Ghost & Writer - Never Take Fire (Secret Re-Work).mp3
               /Users/mdalbey/Music/XLD/Various Artists - Dependence 2013 [FLAC]/01 - Ghost & Writer - Never Take Fire (Secret Re-Work).flac
    Pre-gap length : 00:02:00
    Track gain               : -6.71 dB
    Peak                     : 0.988464
    CRC32 hash (test run)    : 84AB90A7
    CRC32 hash               : 84AB90A7
    CRC32 hash (skip zero)   : 0DE0B4E5
    AccurateRip v1 signature : 4775E4C6
    AccurateRip v2 signature : 51EE30A5
        ->Track not present in AccurateRip database.
    Statistics
        Read error                           : 0
        Jitter error (maybe fixed)           : 0
        Retry sector count                   : 0
        Damaged sector count                 : 0
Track 02
    Filename : /Users/mdalbey/Music/XLD/Various Artists - Dependence 2013 [V0]/02 - Covenant - For Our Time (Demo Version).mp3
               /Users/mdalbey/Music/XLD/Various Artists - Dependence 2013 [V2]/02 - Covenant - For Our Time (Demo Version).mp3
               /Users/mdalbey/Music/XLD/Various Artists - Dependence 2013 [320]/02 - Covenant - For Our Time (Demo Version).mp3
               /Users/mdalbey/Music/XLD/Various Artists - Dependence 2013 [FLAC]/02 - Covenant - For Our Time (Demo Version).flac
    Pre-gap length : 00:01:04
    Track gain               : -7.42 dB
    Peak                     : 0.988464
    CRC32 hash (test run)    : 6EFA87DF
    CRC32 hash               : 6EFA87DF
    CRC32 hash (skip zero)   : 0240D937
    AccurateRip v1 signature : 096C72B6
    AccurateRip v2 signature : A210318E
        ->Track not present in AccurateRip database.
    Statistics
        Read error                           : 0
        Jitter error (maybe fixed)           : 0
        Retry sector count                   : 0
        Damaged sector count                 : 0
Track 03
    Filename : /Users/mdalbey/Music/XLD/Various Artists - Dependence 2013 [V0]/03 - Click Click - What Do You Want?.mp3
               /Users/mdalbey/Music/XLD/Various Artists - Dependence 2013 [V2]/03 - Click Click - What Do You Want?.mp3
               /Users/mdalbey/Music/XLD/Various Artists - Dependence 2013 [320]/03 - Click Click - What Do You Want?.mp3
               /Users/mdalbey/Music/XLD/Various Artists - Dependence 2013 [FLAC]/03 - Click Click - What Do You Want?.flac
    Pre-gap length : 00:01:14
    Track gain               : -8.07 dB
    Peak                     : 0.988464
    CRC32 hash (test run)    : 712B5143
    CRC32 hash               : 712B5143
    CRC32 hash (skip zero)   : 6F5B395E
    AccurateRip v1 signature : 27324469
    AccurateRip v2 signature : CBEDDCAC
        ->Track not present in AccurateRip database.
    Statistics
        Read error                           : 0
        Jitter error (maybe fixed)           : 0
        Retry sector count                   : 0
        Damaged sector count                 : 0
Track 04
    Filename : /Users/mdalbey/Music/XLD/Various Artists - Dependence 2013 [V0]/04 - Pride & Fall - Hollow (SITD Remix).mp3
               /Users/mdalbey/Music/XLD/Various Artists - Dependence 2013 [V2]/04 - Pride & Fall - Hollow (SITD Remix).mp3
               /Users/mdalbey/Music/XLD/Various Artists - Dependence 2013 [320]/04 - Pride & Fall - Hollow (SITD Remix).mp3
               /Users/mdalbey/Music/XLD/Various Artists - Dependence 2013 [FLAC]/04 - Pride & Fall - Hollow (SITD Remix).flac
    Pre-gap length : 00:02:09
    Track gain               : -6.33 dB
    Peak                     : 0.988464
    CRC32 hash (test run)    : CE954844
    CRC32 hash               : CE954844
    CRC32 hash (skip zero)   : 5131E58D
    AccurateRip v1 signature : B5FA36B8
    AccurateRip v2 signature : 65C0317E
        ->Track not present in AccurateRip database.
    Statistics
        Read error                           : 0
        Jitter error (maybe fixed)           : 0
        Retry sector count                   : 0
        Damaged sector count                 : 0
Track 05
    Filename : /Users/mdalbey/Music/XLD/Various Artists - Dependence 2013 [V0]/05 - Encephalon - Desertropolis.mp3
               /Users/mdalbey/Music/XLD/Various Artists - Dependence 2013 [V2]/05 - Encephalon - Desertropolis.mp3
               /Users/mdalbey/Music/XLD/Various Artists - Dependence 2013 [320]/05 - Encephalon - Desertropolis.mp3
               /Users/mdalbey/Music/XLD/Various Artists - Dependence 2013 [FLAC]/05 - Encephalon - Desertropolis.flac
    Pre-gap length : 00:00:62
    Track gain               : -7.82 dB
    Peak                     : 0.927612
    CRC32 hash (test run)    : B2E53A80
    CRC32 hash               : B2E53A80
    CRC32 hash (skip zero)   : 09F53D81
    AccurateRip v1 signature : F806D1EB
    AccurateRip v2 signature : B6BEDE6C
        ->Track not present in AccurateRip database.
    Statistics
        Read error                           : 0
        Jitter error (maybe fixed)           : 0
        Retry sector count                   : 0
        Damaged sector count                 : 0
Track 06
    Filename : /Users/mdalbey/Music/XLD/Various Artists - Dependence 2013 [V0]/06 - Velvet Acid Christ - Inhale Blood.mp3
               /Users/mdalbey/Music/XLD/Various Artists - Dependence 2013 [V2]/06 - Velvet Acid Christ - Inhale Blood.mp3
               /Users/mdalbey/Music/XLD/Various Artists - Dependence 2013 [320]/06 - Velvet Acid Christ - Inhale Blood.mp3
               /Users/mdalbey/Music/XLD/Various Artists - Dependence 2013 [FLAC]/06 - Velvet Acid Christ - Inhale Blood.flac
    Pre-gap length : 00:01:08
    Track gain               : -7.66 dB
    Peak                     : 0.925690
    CRC32 hash (test run)    : 4D136905
    CRC32 hash               : 4D136905
    CRC32 hash (skip zero)   : 37123D12
    AccurateRip v1 signature : 0EB82084
    AccurateRip v2 signature : 1C66954F
        ->Track not present in AccurateRip database.
    Statistics
        Read error                           : 0
        Jitter error (maybe fixed)           : 0
        Retry sector count                   : 0
        Damaged sector count                 : 0
Track 07
    Filename : /Users/mdalbey/Music/XLD/Various Artists - Dependence 2013 [V0]/07 - Mesh - Pefect Idea of Beauty.mp3
               /Users/mdalbey/Music/XLD/Various Artists - Dependence 2013 [V2]/07 - Mesh - Pefect Idea of Beauty.mp3
               /Users/mdalbey/Music/XLD/Various Artists - Dependence 2013 [320]/07 - Mesh - Pefect Idea of Beauty.mp3
               /Users/mdalbey/Music/XLD/Various Artists - Dependence 2013 [FLAC]/07 - Mesh - Pefect Idea of Beauty.flac
    Pre-gap length : 00:00:48
    Track gain               : -8.49 dB
    Peak                     : 0.956055
    CRC32 hash (test run)    : 2C480D84
    CRC32 hash               : 2C480D84
    CRC32 hash (skip zero)   : A285A2DA
    AccurateRip v1 signature : C5409725
    AccurateRip v2 signature : CFE59B8F
        ->Track not present in AccurateRip database.
    Statistics
        Read error                           : 0
        Jitter error (maybe fixed)           : 0
        Retry sector count                   : 0
        Damaged sector count                 : 0
Track 08
    Filename : /Users/mdalbey/Music/XLD/Various Artists - Dependence 2013 [V0]/08 - Acretongue - These Soft Machines (haujobb Remix).mp3
               /Users/mdalbey/Music/XLD/Various Artists - Dependence 2013 [V2]/08 - Acretongue - These Soft Machines (haujobb Remix).mp3
               /Users/mdalbey/Music/XLD/Various Artists - Dependence 2013 [320]/08 - Acretongue - These Soft Machines (haujobb Remix).mp3
               /Users/mdalbey/Music/XLD/Various Artists - Dependence 2013 [FLAC]/08 - Acretongue - These Soft Machines (haujobb Remix).flac
    Pre-gap length : 00:00:13
    Track gain               : -8.41 dB
    Peak                     : 0.988464
    CRC32 hash (test run)    : 323FE881
    CRC32 hash               : 323FE881
    CRC32 hash (skip zero)   : A5CF2085
    AccurateRip v1 signature : A4D70AEF
    AccurateRip v2 signature : 4F9A9656
        ->Track not present in AccurateRip database.
    Statistics
        Read error                           : 0
        Jitter error (maybe fixed)           : 0
        Retry sector count                   : 0
        Damaged sector count                 : 0
Track 09
    Filename : /Users/mdalbey/Music/XLD/Various Artists - Dependence 2013 [V0]/09 - Frontline Assembly - Ghosts (Greg Reely Alternative Mix).mp3
               /Users/mdalbey/Music/XLD/Various Artists - Dependence 2013 [V2]/09 - Frontline Assembly - Ghosts (Greg Reely Alternative Mix).mp3
               /Users/mdalbey/Music/XLD/Various Artists - Dependence 2013 [320]/09 - Frontline Assembly - Ghosts (Greg Reely Alternative Mix).mp3
               /Users/mdalbey/Music/XLD/Various Artists - Dependence 2013 [FLAC]/09 - Frontline Assembly - Ghosts (Greg Reely Alternative Mix).flac
    Pre-gap length : 00:01:57
    Track gain               : -7.35 dB
    Peak                     : 0.988464
    CRC32 hash (test run)    : 36594AE9
    CRC32 hash               : 36594AE9
    CRC32 hash (skip zero)   : 272C5350
    AccurateRip v1 signature : 6AD8EAD8
    AccurateRip v2 signature : 7A26CA88
        ->Track not present in AccurateRip database.
    Statistics
        Read error                           : 0
        Jitter error (maybe fixed)           : 0
        Retry sector count                   : 0
        Damaged sector count                 : 0
Track 10
    Filename : /Users/mdalbey/Music/XLD/Various Artists - Dependence 2013 [V0]/10 - Decoded Feedback - Blasphemy.mp3
               /Users/mdalbey/Music/XLD/Various Artists - Dependence 2013 [V2]/10 - Decoded Feedback - Blasphemy.mp3
               /Users/mdalbey/Music/XLD/Various Artists - Dependence 2013 [320]/10 - Decoded Feedback - Blasphemy.mp3
               /Users/mdalbey/Music/XLD/Various Artists - Dependence 2013 [FLAC]/10 - Decoded Feedback - Blasphemy.flac
    Pre-gap length : 00:00:41
    Track gain               : -7.20 dB
    Peak                     : 0.988464
    CRC32 hash (test run)    : EF4492C0
    CRC32 hash               : EF4492C0
    CRC32 hash (skip zero)   : C97DBD54
    AccurateRip v1 signature : 18D9F5C7
    AccurateRip v2 signature : 659E49C8
        ->Track not present in AccurateRip database.
    Statistics
        Read error                           : 0
        Jitter error (maybe fixed)           : 0
        Retry sector count                   : 0
        Damaged sector count                 : 0
Track 11
    Filename : /Users/mdalbey/Music/XLD/Various Artists - Dependence 2013 [V0]/11 - Seabound - Nothing But Love.mp3
               /Users/mdalbey/Music/XLD/Various Artists - Dependence 2013 [V2]/11 - Seabound - Nothing But Love.mp3
               /Users/mdalbey/Music/XLD/Various Artists - Dependence 2013 [320]/11 - Seabound - Nothing But Love.mp3
               /Users/mdalbey/Music/XLD/Various Artists - Dependence 2013 [FLAC]/11 - Seabound - Nothing But Love.flac
    Pre-gap length : 00:01:26
    Track gain               : -7.03 dB
    Peak                     : 0.988464
    CRC32 hash (test run)    : 5F99EA45
    CRC32 hash               : 5F99EA45
    CRC32 hash (skip zero)   : CD0B8A87
    AccurateRip v1 signature : 6EEF7840
    AccurateRip v2 signature : D2178B72
        ->Track not present in AccurateRip database.
    Statistics
        Read error                           : 0
        Jitter error (maybe fixed)           : 0
        Retry sector count                   : 33
        Damaged sector count                 : 0
Track 12
    Filename : /Users/mdalbey/Music/XLD/Various Artists - Dependence 2013 [V0]/12 - Skinny Puppy - Deadlines (Live in Bratislava).mp3
               /Users/mdalbey/Music/XLD/Various Artists - Dependence 2013 [V2]/12 - Skinny Puppy - Deadlines (Live in Bratislava).mp3
               /Users/mdalbey/Music/XLD/Various Artists - Dependence 2013 [320]/12 - Skinny Puppy - Deadlines (Live in Bratislava).mp3
               /Users/mdalbey/Music/XLD/Various Artists - Dependence 2013 [FLAC]/12 - Skinny Puppy - Deadlines (Live in Bratislava).flac
    Pre-gap length : 00:01:55
    Track gain               : -8.67 dB
    Peak                     : 0.894318
    CRC32 hash (test run)    : F821685A
    CRC32 hash               : F821685A
    CRC32 hash (skip zero)   : 31F97564
    AccurateRip v1 signature : D5697D62
    AccurateRip v2 signature : C81584B3
        ->Track not present in AccurateRip database.
    Statistics
        Read error                           : 0
        Jitter error (maybe fixed)           : 0
        Retry sector count                   : 0
        Damaged sector count                 : 0
Track 13
    Filename : /Users/mdalbey/Music/XLD/Various Artists - Dependence 2013 [V0]/13 - Chrysalide - 2010 (Sonic Area Mix).mp3
               /Users/mdalbey/Music/XLD/Various Artists - Dependence 2013 [V2]/13 - Chrysalide - 2010 (Sonic Area Mix).mp3
               /Users/mdalbey/Music/XLD/Various Artists - Dependence 2013 [320]/13 - Chrysalide - 2010 (Sonic Area Mix).mp3
               /Users/mdalbey/Music/XLD/Various Artists - Dependence 2013 [FLAC]/13 - Chrysalide - 2010 (Sonic Area Mix).flac
    Pre-gap length : 00:01:00
    Track gain               : -9.86 dB
    Peak                     : 0.929443
    CRC32 hash (test run)    : CC675EE6
    CRC32 hash               : CC675EE6
    CRC32 hash (skip zero)   : 1492F119
    AccurateRip v1 signature : AF7F0B45
    AccurateRip v2 signature : 4589659D
        ->Track not present in AccurateRip database.
    Statistics
        Read error                           : 0
        Jitter error (maybe fixed)           : 0
        Retry sector count                   : 0
        Damaged sector count                 : 0
Track 14
    Filename : /Users/mdalbey/Music/XLD/Various Artists - Dependence 2013 [V0]/14 - KMFDM - I (heart) Not.mp3
               /Users/mdalbey/Music/XLD/Various Artists - Dependence 2013 [V2]/14 - KMFDM - I (heart) Not.mp3
               /Users/mdalbey/Music/XLD/Various Artists - Dependence 2013 [320]/14 - KMFDM - I (heart) Not.mp3
               /Users/mdalbey/Music/XLD/Various Artists - Dependence 2013 [FLAC]/14 - KMFDM - I (heart) Not.flac
    Pre-gap length : 00:02:00
    Track gain               : -9.42 dB
    Peak                     : 0.914673
    CRC32 hash (test run)    : 12D5FC57
    CRC32 hash               : 12D5FC57
    CRC32 hash (skip zero)   : 8BA652F1
    AccurateRip v1 signature : 5A29F085
    AccurateRip v2 signature : 1043B681
        ->Track not present in AccurateRip database.
    Statistics
        Read error                           : 0
        Jitter error (maybe fixed)           : 0
        Retry sector count                   : 0
        Damaged sector count                 : 0
Track 15
    Filename : /Users/mdalbey/Music/XLD/Various Artists - Dependence 2013 [V0]/15 - Clicks - On Speed (Not on disk).mp3
               /Users/mdalbey/Music/XLD/Various Artists - Dependence 2013 [V2]/15 - Clicks - On Speed (Not on disk).mp3
               /Users/mdalbey/Music/XLD/Various Artists - Dependence 2013 [320]/15 - Clicks - On Speed (Not on disk).mp3
               /Users/mdalbey/Music/XLD/Various Artists - Dependence 2013 [FLAC]/15 - Clicks - On Speed (Not on disk).flac
    Pre-gap length : 00:01:04
    Track gain               : -7.34 dB
    Peak                     : 0.988464
    CRC32 hash (test run)    : ED95E93C
    CRC32 hash               : ED95E93C
    CRC32 hash (skip zero)   : B3F279A6
    AccurateRip v1 signature : 135B33E6
    AccurateRip v2 signature : EDF82470
        ->Track not present in AccurateRip database.
    Statistics
        Read error                           : 0
        Jitter error (maybe fixed)           : 0
        Retry sector count                   : 0
        Damaged sector count                 : 0
Track 16
    Filename : /Users/mdalbey/Music/XLD/Various Artists - Dependence 2013 [V0]/16 - Veil Veil Vanish - Exile City.mp3
               /Users/mdalbey/Music/XLD/Various Artists - Dependence 2013 [V2]/16 - Veil Veil Vanish - Exile City.mp3
               /Users/mdalbey/Music/XLD/Various Artists - Dependence 2013 [320]/16 - Veil Veil Vanish - Exile City.mp3
               /Users/mdalbey/Music/XLD/Various Artists - Dependence 2013 [FLAC]/16 - Veil Veil Vanish - Exile City.flac
    Pre-gap length : 00:00:40
    Track gain               : -9.40 dB
    Peak                     : 0.964478
    CRC32 hash (test run)    : 114C9E03
    CRC32 hash               : 114C9E03
    CRC32 hash (skip zero)   : A5A27D7E
    AccurateRip v1 signature : B918FE0D
    AccurateRip v2 signature : 366AF569
        ->Track not present in AccurateRip database.
    Statistics
        Read error                           : 0
        Jitter error (maybe fixed)           : 0
        Retry sector count                   : 0
        Damaged sector count                 : 0
No errors occurred
End of status report
Код:
TITLE "Dependence: Next Level Electronics 2013"
REM DATE "2013"
REM DISCID E212AC10
FILE "01. Ghost & Writer - Never Take Fire (Secret Re-Work).flac" WAVE
  TRACK 01 AUDIO
    TITLE "Never Take Fire (Secret Re-Work)"
    PERFORMER "Ghost & Writer"
    INDEX 01 00:00:00
  TRACK 02 AUDIO
    TITLE "For Our Time (Demo Version)"
    PERFORMER "Covenant"
    INDEX 00 07:38:21
FILE "02. Covenant - For Our Time (Demo Version).flac" WAVE
    INDEX 01 00:00:00
  TRACK 03 AUDIO
    TITLE "What Do You Want"
    PERFORMER "Click Click"
    INDEX 00 04:16:26
FILE "03. Click Click - What Do You Want.flac" WAVE
    INDEX 01 00:00:00
  TRACK 04 AUDIO
    TITLE "Hollow (SITD Remix)"
    PERFORMER "Pride & Fall"
    INDEX 00 06:43:12
FILE "04. Pride & Fall - Hollow (SITD Remix).flac" WAVE
    INDEX 01 00:00:00
  TRACK 05 AUDIO
    TITLE "Desertropolis"
    PERFORMER "Encephalon"
    INDEX 00 05:45:67
FILE "05. Encephalon - Desertropolis.flac" WAVE
    INDEX 01 00:00:00
  TRACK 06 AUDIO
    TITLE "Inhale Blood"
    PERFORMER "Velvet Acid Christ"
    INDEX 00 04:53:14
FILE "06. Velvet Acid Christ - Inhale Blood.flac" WAVE
    INDEX 01 00:00:00
  TRACK 07 AUDIO
    TITLE "Pefect Idea of Beauty"
    PERFORMER "Mesh"
    INDEX 00 04:52:17
FILE "07. Mesh - Pefect Idea of Beauty.flac" WAVE
    INDEX 01 00:00:00
  TRACK 08 AUDIO
    TITLE "These Soft Machines (Haujobb Remix)"
    PERFORMER "Acretongue"
    INDEX 00 01:42:23
FILE "08. Acretongue - These Soft Machines (Haujobb Remix).flac" WAVE
    INDEX 01 00:00:00
  TRACK 09 AUDIO
    TITLE "Ghosts (Greg Reely Alternative Mix)"
    PERFORMER "Frontline Assembly"
    INDEX 00 05:27:66
FILE "09. Frontline Assembly - Ghosts (Greg Reely Alternative Mix).flac" WAVE
    INDEX 01 00:00:00
  TRACK 10 AUDIO
    TITLE "Blasphemy"
    PERFORMER "Decoded Feedback"
    INDEX 00 04:40:42
FILE "10. Decoded Feedback - Blasphemy.flac" WAVE
    INDEX 01 00:00:00
  TRACK 11 AUDIO
    TITLE "Nothing But Love"
    PERFORMER "Seabound"
    INDEX 00 06:10:14
FILE "11. Seabound - Nothing But Love.flac" WAVE
    INDEX 01 00:00:00
  TRACK 12 AUDIO
    TITLE "Deadlines (Live in Bratislava)"
    PERFORMER "Skinny Puppy"
    INDEX 00 05:28:11
FILE "12. Skinny Puppy - Deadlines (Live in Bratislava).flac" WAVE
    INDEX 01 00:00:00
  TRACK 13 AUDIO
    TITLE "2010 (Sonic Area Mix)"
    PERFORMER "Chrysalide"
    INDEX 00 06:12:58
FILE "13. Chrysalide - 2010 (Sonic Area Mix).flac" WAVE
    INDEX 01 00:00:00
  TRACK 14 AUDIO
    TITLE "I (Heart) Not"
    PERFORMER "KMFDM"
    INDEX 00 03:20:41
FILE "14. KMFDM - I (Heart) Not.flac" WAVE
    INDEX 01 00:00:00
  TRACK 15 AUDIO
    TITLE "On Speed (Not On Disk)"
    PERFORMER "Clicks"
    INDEX 00 03:54:61
FILE "15. Clicks - On Speed (Not On Disk).flac" WAVE
    INDEX 01 00:00:00
  TRACK 16 AUDIO
    TITLE "Exile City"
    PERFORMER "Veil Veil Vanish"
    INDEX 00 04:32:23
FILE "16. Veil Veil Vanish - Exile City.flac" WAVE
    INDEX 01 00:00:00
Правила, инструкции, FAQ!!!
Торрент  Добавлен [26 июн 2020, 20:17] Скачать торрент Магнет ссылка
Скачать торрент
[ Размер 12.79 КБ / Просмотров 8 ]

Статус
Проверен 
 
Размер  556.03 МБ
Приватный: Нет (DHT включён)
.torrent скачан  0
 


     Отправить личное сообщение
   
Страница 1 из 1
Показать сообщения за:  Поле сортировки  
Начать новую тему Ответить на тему


Сейчас этот форум просматривают: нет зарегистрированных пользователей и гости: 0


Вы не можете начинать темы
Вы не можете отвечать на сообщения
Вы не можете редактировать свои сообщения
Вы не можете удалять свои сообщения
Вы не можете добавлять вложения

Перейти:  
cron