Начать новую тему Ответить на тему
Статистика раздачи
Размер: 669.76 МБ | Добавлен: 26 июн 2020, 20:24 | Скачали: 0
Сидеров: 0  [0 байт/сек]    Личеров: 0  [0 байт/сек]
Пред. тема | След. тема 

Автор
Сообщение

СообщениеДобавлено: 26 июн 2020, 20:24 

Ответить с цитатой 

Miss Construction / Kunstprodukt
Жанр: Electronic / EBM, Electro, Industrial
Страна-производитель диска: Germany
Год издания диска: 2008
Издатель (лейбл): Fear Section
Номер по каталогу: Fear 030
Формат: CD, Album
Аудио кодек: FLAC (*.flac)
Тип рипа: image+.cue
Битрейт аудио: lossless
Продолжительность: 1:17:48.00
Источник (релизер): Физический носитель (Собственный рип с оригинального CD).
Наличие сканов в содержимом раздачи: да
Треклист:
01. Intro [2:30]
02. Miss Construction Theme [4:48]
03. Kunstprodukt [3:59]
04. Eins und Zwei [4:33]
05. Headshot [5:00]
06. F**k Me Too [4:26]
07. Hass und Liebe [5:12]
08. Luncatic [4:06]
09. I Luv U [4:59]
10. Totes Fleisch [4:36]
11. Slaughterhouse [4:59]
12. F**k U Bitch [4:49]
13. Pornostar [4:25]
14. Electro Beast [5:03]
15. Kunstprodukt (Remixed by Gintronic) [3:41]
16. Electro Beast (Remixed by Dolls Of Pain) [4:42]
17. x [0:04]
18. x [0:04]
19. x [0:07]
20. Hidden Track [5:45]
Код:
Exact Audio Copy V1.0 beta 3 from 29. August 2011
EAC extraction logfile from 29. January 2012, 19:27
Miss Construction / Kunstprodukt
Used drive  : PLEXTOR BDDVDR PX-B320SA   Adapter: 0  ID: 2
Read mode               : Secure
Utilize accurate stream : Yes
Defeat audio cache      : Yes
Make use of C2 pointers : No
Read offset correction                      : 6
Overread into Lead-In and Lead-Out          : No
Fill up missing offset samples with silence : Yes
Delete leading and trailing silent blocks   : No
Null samples used in CRC calculations       : Yes
Used interface                              : Native Win32 interface for Win NT & 2000
Used output format              : User Defined Encoder
Selected bitrate                : 128 kBit/s
Quality                         : High
Add ID3 tag                     : No
Command line compressor         : C:\Program Files (x86)\FLAC\flac.exe
Additional command line options : -V -8 -T "Date=%year%" -T "Genre=%genre%" %source%
TOC of the extracted CD
     Track |   Start  |  Length  | Start sector | End sector
    ---------------------------------------------------------
        1  |  0:00.00 |  2:29.55 |         0    |    11229
        2  |  2:29.55 |  4:48.19 |     11230    |    32848
        3  |  7:17.74 |  3:58.38 |     32849    |    50736
        4  | 11:16.37 |  4:33.21 |     50737    |    71232
        5  | 15:49.58 |  5:00.04 |     71233    |    93736
        6  | 20:49.62 |  4:26.32 |     93737    |   113718
        7  | 25:16.19 |  5:11.58 |    113719    |   137101
        8  | 30:28.02 |  4:05.53 |    137102    |   155529
        9  | 34:33.55 |  4:59.16 |    155530    |   177970
       10  | 39:32.71 |  4:36.12 |    177971    |   198682
       11  | 44:09.08 |  4:59.06 |    198683    |   221113
       12  | 49:08.14 |  4:48.58 |    221114    |   242771
       13  | 53:56.72 |  4:24.65 |    242772    |   262636
       14  | 58:21.62 |  5:02.69 |    262637    |   285355
       15  | 63:24.56 |  3:41.12 |    285356    |   301942
       16  | 67:05.68 |  4:41.68 |    301943    |   323085
       17  | 71:47.61 |  0:04.00 |    323086    |   323385
       18  | 71:51.61 |  0:04.00 |    323386    |   323685
       19  | 71:55.61 |  0:07.13 |    323686    |   324223
       20  | 72:02.74 |  5:45.01 |    324224    |   350099
Range status and errors
Selected range
     Filename D:\Miss Construction – Kunstprodukt (2008)\Miss Construction - Kunstprodukt.wav
     Peak level 98.1 %
     Extraction speed 8.5 X
     Range quality 100.0 %
     Test CRC A70B33FA
     Copy CRC A70B33FA
     Copy OK
No errors occurred
AccurateRip summary
Track  1  accurately ripped (confidence 4)  [C4D89183]  (AR v1)
Track  2  accurately ripped (confidence 4)  [643C786C]  (AR v1)
Track  3  accurately ripped (confidence 4)  [C1D6DC95]  (AR v1)
Track  4  accurately ripped (confidence 4)  [6E980DB1]  (AR v1)
Track  5  accurately ripped (confidence 4)  [1BC9594D]  (AR v1)
Track  6  accurately ripped (confidence 4)  [E3546D55]  (AR v1)
Track  7  accurately ripped (confidence 4)  [BAE4B369]  (AR v1)
Track  8  accurately ripped (confidence 4)  [A7ECAAA8]  (AR v1)
Track  9  accurately ripped (confidence 4)  [483C8F8A]  (AR v1)
Track 10  accurately ripped (confidence 4)  [7AA87873]  (AR v1)
Track 11  accurately ripped (confidence 4)  [1B39B2AB]  (AR v1)
Track 12  accurately ripped (confidence 4)  [57B6C8CC]  (AR v1)
Track 13  accurately ripped (confidence 4)  [175AAD5D]  (AR v1)
Track 14  accurately ripped (confidence 4)  [8C30282A]  (AR v1)
Track 15  accurately ripped (confidence 4)  [D1352422]  (AR v1)
Track 16  accurately ripped (confidence 4)  [1E6BEE10]  (AR v1)
Track 17  not present in database
Track 18  not present in database
Track 19  not present in database
Track 20  accurately ripped (confidence 4)  [097F1CA0]  (AR v1)
17 трек(и) скопированы точно
 3 трек(и) не содержатся в базе AccurateRip
Some tracks could not be verified as accurate
End of status report
==== Log checksum C8FED3AFCC84CEC0791FFF52C74C2215C915025FF402E78E4621F4EA7D01B9E3 ====
Правила, инструкции, FAQ!!!
Торрент  Добавлен [26 июн 2020, 20:24] Скачать торрент Магнет ссылка
Скачать торрент
[ Размер 14.25 КБ / Просмотров 1 ]

Статус
Проверен 
 
Размер  669.76 МБ
Приватный: Нет (DHT включён)
.torrent скачан  0
 


     Отправить личное сообщение
   
Страница 1 из 1
Показать сообщения за:  Поле сортировки  
Начать новую тему Ответить на тему


Сейчас этот форум просматривают: нет зарегистрированных пользователей и гости: 0


Вы не можете начинать темы
Вы не можете отвечать на сообщения
Вы не можете редактировать свои сообщения
Вы не можете удалять свои сообщения
Вы не можете добавлять вложения

Перейти:  
cron