Начать новую тему Ответить на тему
Статистика раздачи
Размер: 420.14 МБ | Добавлен: 26 июн 2020, 17:36 | Скачали: 0
Сидеров: 0  [0 байт/сек]    Личеров: 0  [0 байт/сек]
Пред. тема | След. тема 

Автор
Сообщение

СообщениеДобавлено: 26 июн 2020, 17:36 

Ответить с цитатой 

Fraqtured Sound / Architecture
Жанр: Electronic / EBM, Electro, Industrial
Страна-производитель диска: US
Год издания диска: 2005
Издатель (лейбл): Not On Label
Номер по каталогу: f:s3
Формат: CD, Album
Аудиокодек: FLAC (*.flac)
Тип рипа: image+.cue
Битрейт аудио: lossless
Продолжительность: 0:58:57.78
Источник (релизер): Физический носитель (Собственный рип с оригинала).
Наличие сканов в содержимом раздачи: да
Треклист:
01. Fin [4:32]
02. Anvalhycide [5:32]
03. Subconscious [4:58]
04. Pivot Skiping [4:38]
05. In This My End [4:45]
06. Sunken Craft [4:06]
07. The Sky Was Weeping [4:21]
08. Broken Ends [7:00]
09. 13 [5:57]
10. In This Twilight [6:54]
11. Matter Wasted [6:14]
Код:
Exact Audio Copy V1.0 beta 3 from 29. August 2011
EAC extraction logfile from 12. February 2012, 20:01
Fraqtured Sound / Architecture
Used drive  : PLEXTOR BDDVDR PX-B320SA   Adapter: 0  ID: 2
Read mode               : Secure
Utilize accurate stream : Yes
Defeat audio cache      : Yes
Make use of C2 pointers : No
Read offset correction                      : 6
Overread into Lead-In and Lead-Out          : No
Fill up missing offset samples with silence : Yes
Delete leading and trailing silent blocks   : No
Null samples used in CRC calculations       : Yes
Used interface                              : Native Win32 interface for Win NT & 2000
Used output format              : User Defined Encoder
Selected bitrate                : 128 kBit/s
Quality                         : High
Add ID3 tag                     : No
Command line compressor         : C:\Program Files (x86)\FLAC\flac.exe
Additional command line options : -V -8 -T "Date=%year%" -T "Genre=%genre%" %source%
TOC of the extracted CD
     Track |   Start  |  Length  | Start sector | End sector
    ---------------------------------------------------------
        1  |  0:00.00 |  4:32.28 |         0    |    20427
        2  |  4:32.28 |  5:32.05 |     20428    |    45332
        3  | 10:04.33 |  4:58.06 |     45333    |    67688
        4  | 15:02.39 |  4:37.45 |     67689    |    88508
        5  | 19:40.09 |  4:45.06 |     88509    |   109889
        6  | 24:25.15 |  4:06.11 |    109890    |   128350
        7  | 28:31.26 |  4:21.03 |    128351    |   147928
        8  | 32:52.29 |  7:00.10 |    147929    |   179438
        9  | 39:52.39 |  5:56.57 |    179439    |   206195
       10  | 45:49.21 |  6:54.03 |    206196    |   237248
       11  | 52:43.24 |  6:14.35 |    237249    |   265333
Range status and errors
Selected range
     Filename D:\Fraqtured Sound - Architecture (2005)\Fraqtured Sound - Architecture.wav
     Peak level 100.0 %
     Extraction speed 3.6 X
     Range quality 99.9 %
     Test CRC AE58D34C
     Copy CRC AE58D34C
     Copy OK
No errors occurred
AccurateRip summary
Track  1  not present in database
Track  2  not present in database
Track  3  not present in database
Track  4  not present in database
Track  5  not present in database
Track  6  not present in database
Track  7  not present in database
Track  8  not present in database
Track  9  not present in database
Track 10  not present in database
Track 11  not present in database
None of the tracks are present in the AccurateRip database
End of status report
==== Log checksum 80D8299726A80BC66C92F81FCF3D9478D735971BBD134C0D0708D5AC7759A429 ====
Правила, инструкции, FAQ!!!
Торрент  Добавлен [26 июн 2020, 17:36] Скачать торрент Магнет ссылка
Скачать торрент
[ Размер 17.31 КБ / Просмотров 5 ]

Статус
Проверен 
 
Размер  420.14 МБ
Приватный: Нет (DHT включён)
.torrent скачан  0
 


     Отправить личное сообщение
   
Страница 1 из 1
Показать сообщения за:  Поле сортировки  
Начать новую тему Ответить на тему


Сейчас этот форум просматривают: нет зарегистрированных пользователей и гости: 0


Вы не можете начинать темы
Вы не можете отвечать на сообщения
Вы не можете редактировать свои сообщения
Вы не можете удалять свои сообщения
Вы не можете добавлять вложения

Перейти:  
cron