Начать новую тему Ответить на тему
Статистика раздачи
Размер: 1.82 ГБ | Добавлен: 26 июн 2020, 17:02 | Скачали: 0
Сидеров: 0  [0 байт/сек]    Личеров: 0  [0 байт/сек]
Пред. тема | След. тема 

Автор
Сообщение

СообщениеДобавлено: 26 июн 2020, 17:02 

Ответить с цитатой 

Exilanation / Official Albums Discography (2005-2007) (3 CD)
Жанр: Electronic / EBM, Electro
Страна-производитель дисков: Germany
Год издания дисков: 2005-2007
Страна: Germany
Аудио кодек: FLAC (*.flac)
Тип рипа: tracks+.cue
Битрейт аудио: lossless
Источник (релизер): Физические носители (Собственный рип с оригинальных CD).
Наличие сканов в содержимом раздачи: да
Доп. информация: НЕ "Фирстпрессы" (в чистом виде они не переиздавались и их уже не достать).
Все диски здесь - лимитированные CDr переиздания с бонусными трэками от некоего лейбла traxxit.eu
Приятного прослушивания !
Раздача осуществляется исключительно в ознакомительных целях!
Всем, кому нравится творчество Exilanation, советую последовать моему примеру и приобрести лицензионные диски легально (хотя бы те, которые возможно купить), и тем самым поддержать исполнителя !
Handing out is carried out only to get acquainted!
Everyone who likes to art Exilanation, I advise to follow my example and buy a license legally CDs (at least those who might buy), and thus support the artist!
#777Год издания диска: 2005
Издатель (лейбл): Codeline Records
Номер по каталогу: CDL 001
Формат: CDr, Album (Limited to 500 CDs)
Продолжительность: 1:18:58.00
Треклист:
01. Killer Application [6:19]
02. Antiist [3:44]
03. Confusion [5:38]
04. Apocalyptica [5:56]
05. Decision (feat. God's Fusion) [5:01]
06. Destiny [5:45]
07. Stronghold [4:39]
08. Ruhestoerung [4:31]
09. Ebmisnotdead (Alive In Schwedt) [3:53]
10. Inferno [9:51]
Bonus part:
11. Spiritual Cramp - Phoenix (Exilanation Remix) [5:50]
12. Pandique - Human (Exilanation Remix) [5:16]
13. Sero Overdose - She (Exilanation Remix) [5:04]
14. Legacy Of Music - Reincarnation (Exilanation Remix) [3:41]
15. Infernosounds - Electrogirl (Exilanation Remix) [3:50]
Код:
Exact Audio Copy V0.99 prebeta 5 from 4. May 2009
EAC extraction logfile from 19. July 2010, 19:45
Exilanation / EBM Is Not Dead
Used drive  : PLEXTOR DVDR   PX-880SA   Adapter: 0  ID: 2
Read mode               : Secure
Utilize accurate stream : Yes
Defeat audio cache      : Yes
Make use of C2 pointers : No
Read offset correction                      : 6
Overread into Lead-In and Lead-Out          : No
Fill up missing offset samples with silence : Yes
Delete leading and trailing silent blocks   : No
Null samples used in CRC calculations       : Yes
Used interface                              : Native Win32 interface for Win NT & 2000
Gap handling                                : Appended to previous track
Used output format              : User Defined Encoder
Selected bitrate                : 128 kBit/s
Quality                         : High
Add ID3 tag                     : No
Command line compressor         : C:\Program Files\Exact Audio Copy\Flac\flac.exe
Additional command line options : -8 -V -T "ARTIST=%a" -T "TITLE=%t" -T "ALBUM=%g" -T "DATE=%y" -T "TRACKNUMBER=%n" -T "GENRE=%m" -T "COMMENT=EAC FLAC -8" %s
TOC of the extracted CD
     Track |   Start  |  Length  | Start sector | End sector
    ---------------------------------------------------------
        1  |  0:00.00 |  6:19.00 |         0    |    28424
        2  |  6:19.00 |  3:44.00 |     28425    |    45224
        3  | 10:03.00 |  5:38.00 |     45225    |    70574
        4  | 15:41.00 |  5:56.00 |     70575    |    97274
        5  | 21:37.00 |  5:01.00 |     97275    |   119849
        6  | 26:38.00 |  5:45.00 |    119850    |   145724
        7  | 32:23.00 |  4:39.00 |    145725    |   166649
        8  | 37:02.00 |  4:31.00 |    166650    |   186974
        9  | 41:33.00 |  3:53.00 |    186975    |   204449
       10  | 45:26.00 |  9:51.00 |    204450    |   248774
       11  | 55:17.00 |  5:50.00 |    248775    |   275024
       12  | 61:07.00 |  5:16.00 |    275025    |   298724
       13  | 66:23.00 |  5:04.00 |    298725    |   321524
       14  | 71:27.00 |  3:41.00 |    321525    |   338099
       15  | 75:08.00 |  3:50.00 |    338100    |   355349
Track  1
     Filename D:\Exilanation - EBM Is Not Dead (2005)\01. Exilanation – Killer Application.wav
     Pre-gap length  0:00:02.00
     Peak level 100.0 %
     Track quality 100.0 %
     Test CRC AF4F92D4
     Copy CRC AF4F92D4
     Track not present in AccurateRip database
     Copy OK
Track  2
     Filename D:\Exilanation - EBM Is Not Dead (2005)\02. Exilanation – Antiist.wav
     Peak level 100.0 %
     Track quality 100.0 %
     Test CRC 08E4808E
     Copy CRC 08E4808E
     Track not present in AccurateRip database
     Copy OK
Track  3
     Filename D:\Exilanation - EBM Is Not Dead (2005)\03. Exilanation – Confusion.wav
     Peak level 100.0 %
     Track quality 100.0 %
     Test CRC 2227A24D
     Copy CRC 2227A24D
     Track not present in AccurateRip database
     Copy OK
Track  4
     Filename D:\Exilanation - EBM Is Not Dead (2005)\04. Exilanation – Apocalyptica.wav
     Peak level 100.0 %
     Track quality 99.9 %
     Test CRC AB0E6C97
     Copy CRC AB0E6C97
     Track not present in AccurateRip database
     Copy OK
Track  5
     Filename D:\Exilanation - EBM Is Not Dead (2005)\05. Exilanation – Decision (feat. God's Fusion).wav
     Peak level 100.0 %
     Track quality 100.0 %
     Test CRC 8F3B85E7
     Copy CRC 8F3B85E7
     Track not present in AccurateRip database
     Copy OK
Track  6
     Filename D:\Exilanation - EBM Is Not Dead (2005)\06. Exilanation – Destiny.wav
     Peak level 100.0 %
     Track quality 99.9 %
     Test CRC 7EFD7C3F
     Copy CRC 7EFD7C3F
     Track not present in AccurateRip database
     Copy OK
Track  7
     Filename D:\Exilanation - EBM Is Not Dead (2005)\07. Exilanation – Stronghold.wav
     Peak level 100.0 %
     Track quality 100.0 %
     Test CRC 8A7B6843
     Copy CRC 8A7B6843
     Track not present in AccurateRip database
     Copy OK
Track  8
     Filename D:\Exilanation - EBM Is Not Dead (2005)\08. Exilanation – Ruhestoerung.wav
     Peak level 100.0 %
     Track quality 100.0 %
     Test CRC 010FD549
     Copy CRC 010FD549
     Track not present in AccurateRip database
     Copy OK
Track  9
     Filename D:\Exilanation - EBM Is Not Dead (2005)\09. Exilanation – Ebmisnotdead (Alive In Schwedt).wav
     Peak level 100.0 %
     Track quality 100.0 %
     Test CRC 613F17E6
     Copy CRC 613F17E6
     Track not present in AccurateRip database
     Copy OK
Track 10
     Filename D:\Exilanation - EBM Is Not Dead (2005)\10. Exilanation – Inferno.wav
     Peak level 100.0 %
     Track quality 100.0 %
     Test CRC 104AB509
     Copy CRC 104AB509
     Track not present in AccurateRip database
     Copy OK
Track 11
     Filename D:\Exilanation - EBM Is Not Dead (2005)\11. Exilanation – Bonus part- Spiritual Cramp - Phoenix (Exilanation Remix).wav
     Peak level 100.0 %
     Track quality 99.9 %
     Test CRC A14C5246
     Copy CRC A14C5246
     Track not present in AccurateRip database
     Copy OK
Track 12
     Filename D:\Exilanation - EBM Is Not Dead (2005)\12. Exilanation – Bonus part- Pandique - Human (Exilanation Remix).wav
     Peak level 100.0 %
     Track quality 100.0 %
     Test CRC 0626C1D5
     Copy CRC 0626C1D5
     Track not present in AccurateRip database
     Copy OK
Track 13
     Filename D:\Exilanation - EBM Is Not Dead (2005)\13. Exilanation – Bonus part- Sero Overdose - She (Exilanation Remix).wav
     Peak level 100.0 %
     Track quality 100.0 %
     Test CRC 5B907C9A
     Copy CRC 5B907C9A
     Track not present in AccurateRip database
     Copy OK
Track 14
     Filename D:\Exilanation - EBM Is Not Dead (2005)\14. Exilanation – Bonus part- Legacy Of Music - Reincarnation (Exilanation Remix).wav
     Peak level 100.0 %
     Track quality 100.0 %
     Test CRC 9F1D9D22
     Copy CRC 9F1D9D22
     Track not present in AccurateRip database
     Copy OK
Track 15
     Filename D:\Exilanation - EBM Is Not Dead (2005)\15. Exilanation – Bonus part- Infernosounds - Electrogirl (Exilanation Remix).wav
     Peak level 99.9 %
     Track quality 100.0 %
     Test CRC 40F00615
     Copy CRC 40F00615
     Track not present in AccurateRip database
     Copy OK
None of the tracks are present in the AccurateRip database
No errors occurred
End of status report
Код:
REM GENRE Electronic
REM DATE 2005
REM DISCID EB12820F
REM COMMENT "ExactAudioCopy v0.99pb5"
PERFORMER "Exilanation"
TITLE "EBM Is Not Dead"
FILE "01. Exilanation – Killer Application.wav" WAVE
  TRACK 01 AUDIO
    TITLE "Killer Application"
    PERFORMER "Exilanation"
    FLAGS DCP
    INDEX 01 00:00:00
FILE "02. Exilanation – Antiist.wav" WAVE
  TRACK 02 AUDIO
    TITLE "Antiist"
    PERFORMER "Exilanation"
    FLAGS DCP
    INDEX 01 00:00:00
FILE "03. Exilanation – Confusion.wav" WAVE
  TRACK 03 AUDIO
    TITLE "Confusion"
    PERFORMER "Exilanation"
    FLAGS DCP
    INDEX 01 00:00:00
FILE "04. Exilanation – Apocalyptica.wav" WAVE
  TRACK 04 AUDIO
    TITLE "Apocalyptica"
    PERFORMER "Exilanation"
    FLAGS DCP
    INDEX 01 00:00:00
FILE "05. Exilanation – Decision (feat. God's Fusion).wav" WAVE
  TRACK 05 AUDIO
    TITLE "Decision (feat. God's Fusion)"
    PERFORMER "Exilanation"
    FLAGS DCP
    INDEX 01 00:00:00
FILE "06. Exilanation – Destiny.wav" WAVE
  TRACK 06 AUDIO
    TITLE "Destiny"
    PERFORMER "Exilanation"
    FLAGS DCP
    INDEX 01 00:00:00
FILE "07. Exilanation – Stronghold.wav" WAVE
  TRACK 07 AUDIO
    TITLE "Stronghold"
    PERFORMER "Exilanation"
    FLAGS DCP
    INDEX 01 00:00:00
FILE "08. Exilanation – Ruhestoerung.wav" WAVE
  TRACK 08 AUDIO
    TITLE "Ruhestoerung"
    PERFORMER "Exilanation"
    FLAGS DCP
    INDEX 01 00:00:00
FILE "09. Exilanation – Ebmisnotdead (Alive In Schwedt).wav" WAVE
  TRACK 09 AUDIO
    TITLE "Ebmisnotdead (Alive In Schwedt)"
    PERFORMER "Exilanation"
    FLAGS DCP
    INDEX 01 00:00:00
FILE "10. Exilanation – Inferno.wav" WAVE
  TRACK 10 AUDIO
    TITLE "Inferno"
    PERFORMER "Exilanation"
    FLAGS DCP
    INDEX 01 00:00:00
FILE "11. Exilanation – Bonus part- Spiritual Cramp - Phoenix (Exilanation Remix).wav" WAVE
  TRACK 11 AUDIO
    TITLE "Bonus part: Spiritual Cramp - Phoenix (Exilanation Remix)"
    PERFORMER "Exilanation"
    FLAGS DCP
    INDEX 01 00:00:00
FILE "12. Exilanation – Bonus part- Pandique - Human (Exilanation Remix).wav" WAVE
  TRACK 12 AUDIO
    TITLE "Bonus part: Pandique - Human (Exilanation Remix)"
    PERFORMER "Exilanation"
    FLAGS DCP
    INDEX 01 00:00:00
FILE "13. Exilanation – Bonus part- Sero Overdose - She (Exilanation Remix).wav" WAVE
  TRACK 13 AUDIO
    TITLE "Bonus part: Sero Overdose - She (Exilanation Remix)"
    PERFORMER "Exilanation"
    FLAGS DCP
    INDEX 01 00:00:00
FILE "14. Exilanation – Bonus part- Legacy Of Music - Reincarnation (Exilanation Remix).wav" WAVE
  TRACK 14 AUDIO
    TITLE "Bonus part: Legacy Of Music - Reincarnation (Exilanation Remix)"
    PERFORMER "Exilanation"
    FLAGS DCP
    INDEX 01 00:00:00
FILE "15. Exilanation – Bonus part- Infernosounds - Electrogirl (Exilanation Remix).wav" WAVE
  TRACK 15 AUDIO
    TITLE "Bonus part: Infernosounds - Electrogirl (Exilanation Remix)"
    PERFORMER "Exilanation"
    FLAGS DCP
    INDEX 01 00:00:00
Код:
AUDIOCHECKER v2.0 beta (build 457) - by Dester - opdester@freemail.hu
~~~~~~~~~~~~~~~~~~~~~~~~~~~~~~~~~~
Started at: понедельник, 19. 07. 2010. - 19:46.29
15 files found
01 -===- D:\Exilanation - EBM Is Not Dead (2005)\01. Exilanation – Killer Application.flac
  Extracted successfully
  Conclusion: this track is CDDA with probability 100%
  Tempfile successfully deleted.
02 -===- D:\Exilanation - EBM Is Not Dead (2005)\02. Exilanation – Antiist.flac
  Extracted successfully
  Conclusion: this track is CDDA with probability 99%
  Tempfile successfully deleted.
03 -===- D:\Exilanation - EBM Is Not Dead (2005)\03. Exilanation – Confusion.flac
  Extracted successfully
  Conclusion: this track is CDDA with probability 100%
  Tempfile successfully deleted.
04 -===- D:\Exilanation - EBM Is Not Dead (2005)\04. Exilanation – Apocalyptica.flac
  Extracted successfully
  Conclusion: this track is CDDA with probability 100%
  Tempfile successfully deleted.
05 -===- D:\Exilanation - EBM Is Not Dead (2005)\05. Exilanation – Decision (feat. God's Fusion).flac
  Extracted successfully
  Conclusion: this track is MPEG with probability 95%
  Tempfile successfully deleted.
06 -===- D:\Exilanation - EBM Is Not Dead (2005)\06. Exilanation – Destiny.flac
  Extracted successfully
  Conclusion: this track is CDDA with probability 100%
  Tempfile successfully deleted.
07 -===- D:\Exilanation - EBM Is Not Dead (2005)\07. Exilanation – Stronghold.flac
  Extracted successfully
  Conclusion: this track is CDDA with probability 100%
  Tempfile successfully deleted.
08 -===- D:\Exilanation - EBM Is Not Dead (2005)\08. Exilanation – Ruhestoerung.flac
  Extracted successfully
  Conclusion: this track is CDDA with probability 100%
  Tempfile successfully deleted.
09 -===- D:\Exilanation - EBM Is Not Dead (2005)\09. Exilanation – Ebmisnotdead (Alive In Schwedt).flac
  Extracted successfully
  Conclusion: this track is CDDA with probability 100%
  Tempfile successfully deleted.
10 -===- D:\Exilanation - EBM Is Not Dead (2005)\10. Exilanation – Inferno.flac
  Extracted successfully
  Conclusion: this track is CDDA with probability 100%
  Tempfile successfully deleted.
11 -===- D:\Exilanation - EBM Is Not Dead (2005)\11. Exilanation – Bonus part- Spiritual Cramp - Phoenix (Exilanation Remix).flac
  Extracted successfully
  Conclusion: this track is CDDA with probability 100%
  Tempfile successfully deleted.
12 -===- D:\Exilanation - EBM Is Not Dead (2005)\12. Exilanation – Bonus part- Pandique - Human (Exilanation Remix).flac
  Extracted successfully
  Conclusion: this track is CDDA with probability 100%
  Tempfile successfully deleted.
13 -===- D:\Exilanation - EBM Is Not Dead (2005)\13. Exilanation – Bonus part- Sero Overdose - She (Exilanation Remix).flac
  Extracted successfully
  Conclusion: this track is CDDA with probability 100%
  Tempfile successfully deleted.
14 -===- D:\Exilanation - EBM Is Not Dead (2005)\14. Exilanation – Bonus part- Legacy Of Music - Reincarnation (Exilanation Remix).flac
  Extracted successfully
  Conclusion: this track is CDDA with probability 100%
  Tempfile successfully deleted.
15 -===- D:\Exilanation - EBM Is Not Dead (2005)\15. Exilanation – Bonus part- Infernosounds - Electrogirl (Exilanation Remix).flac
  Extracted successfully
  Conclusion: this track is CDDA with probability 100%
  Tempfile successfully deleted.
Finished at: понедельник, 19. 07. 2010. - 19:51.53 (operation time: 0:05.23)
#777Год издания диска: 2006
Издатель (лейбл): Codeline Records
Номер по каталогу: CDL 002
Формат: CDr, Album (Limited to 250 CDs)
Продолжительность: 1:18:49.84
Треклист:
01. The Matrix (Radio Edit) [3:50]
02. Stronghold (Guitar Mix) [4:01]
03. Mindslavery (Rough Mix) [3:48]
04. Confusion (Mechanical Moth Remix) [4:26]
05. Antiist (Deewhy Remix) [4:31]
06. Love Religion (Reconstructed) [4:39]
07. Infinity (Live Recorded) [5:12]
08. Antiist (Legacy Of Music Remix) [4:00]
09. Confusion (Fabrikc Remix) [6:07]
10. The Matrix (F.O.D. Remix) [3:44]
11. Where Angels Fear To Be (120 Bpm) [5:04]
12. The Arrival (Homecoming) [1:56]
Bonus part:
13. 1 AM - Onethousand Beats (Exilanation Remake) [4:15]
14. Rotersand - Almost Violent (Exilanation Remix) [6:14]
15. In Coma - 15 Acid Team (Exilanation Remix) [4:12]
16. Kartagon - 16 Pure Love (Exilanation Remix) [4:55]
17. Access Denied - The Way (Exilanation Remix) [5:18]
18. Pandique - Liebt Jeden (Exilanation Unplugged) [2:38]
Код:
Exact Audio Copy V0.99 prebeta 5 from 4. May 2009
EAC extraction logfile from 19. July 2010, 20:39
Exilanation / The Matrix Is Real Loaded
Used drive  : PLEXTOR DVDR   PX-880SA   Adapter: 0  ID: 2
Read mode               : Secure
Utilize accurate stream : Yes
Defeat audio cache      : Yes
Make use of C2 pointers : No
Read offset correction                      : 6
Overread into Lead-In and Lead-Out          : No
Fill up missing offset samples with silence : Yes
Delete leading and trailing silent blocks   : No
Null samples used in CRC calculations       : Yes
Used interface                              : Native Win32 interface for Win NT & 2000
Gap handling                                : Appended to previous track
Used output format              : User Defined Encoder
Selected bitrate                : 128 kBit/s
Quality                         : High
Add ID3 tag                     : No
Command line compressor         : C:\Program Files\Exact Audio Copy\Flac\flac.exe
Additional command line options : -8 -V -T "ARTIST=%a" -T "TITLE=%t" -T "ALBUM=%g" -T "DATE=%y" -T "TRACKNUMBER=%n" -T "GENRE=%m" -T "COMMENT=EAC FLAC -8" %s
TOC of the extracted CD
     Track |   Start  |  Length  | Start sector | End sector
    ---------------------------------------------------------
        1  |  0:00.00 |  3:50.31 |         0    |    17280
        2  |  3:50.31 |  4:01.07 |     17281    |    35362
        3  |  7:51.38 |  3:48.02 |     35363    |    52464
        4  | 11:39.40 |  4:25.51 |     52465    |    72390
        5  | 16:05.16 |  4:30.57 |     72391    |    92697
        6  | 20:35.73 |  4:38.40 |     92698    |   113587
        7  | 25:14.38 |  5:11.60 |    113588    |   136972
        8  | 30:26.23 |  4:00.16 |    136973    |   154988
        9  | 34:26.39 |  6:07.21 |    154989    |   182534
       10  | 40:33.60 |  3:44.22 |    182535    |   199356
       11  | 44:18.07 |  5:03.56 |    199357    |   222137
       12  | 49:21.63 |  1:56.00 |    222138    |   230837
       13  | 51:17.63 |  4:15.00 |    230838    |   249962
       14  | 55:32.63 |  6:14.00 |    249963    |   278012
       15  | 61:46.63 |  4:12.00 |    278013    |   296912
       16  | 65:58.63 |  4:55.00 |    296913    |   319037
       17  | 70:53.63 |  5:18.00 |    319038    |   342887
       18  | 76:11.63 |  2:38.00 |    342888    |   354737
Track  1
     Filename D:\Exilanation - The Matrix Is Real Loaded (2006)\01. Exilanation – The Matrix (Radio Edit).wav
     Pre-gap length  0:00:02.00
     Peak level 100.0 %
     Track quality 100.0 %
     Test CRC 92795B53
     Copy CRC 92795B53
     Track not present in AccurateRip database
     Copy OK
Track  2
     Filename D:\Exilanation - The Matrix Is Real Loaded (2006)\02. Exilanation – Stronghold (Guitar Mix).wav
     Peak level 99.8 %
     Track quality 99.9 %
     Test CRC 96C6B818
     Copy CRC 96C6B818
     Track not present in AccurateRip database
     Copy OK
Track  3
     Filename D:\Exilanation - The Matrix Is Real Loaded (2006)\03. Exilanation – Mindslavery (Rough Mix).wav
     Peak level 99.9 %
     Track quality 100.0 %
     Test CRC D43D511B
     Copy CRC D43D511B
     Track not present in AccurateRip database
     Copy OK
Track  4
     Filename D:\Exilanation - The Matrix Is Real Loaded (2006)\04. Exilanation – Confusion (Mechanical Moth Remix).wav
     Peak level 100.0 %
     Track quality 100.0 %
     Test CRC 513A8D45
     Copy CRC 513A8D45
     Track not present in AccurateRip database
     Copy OK
Track  5
     Filename D:\Exilanation - The Matrix Is Real Loaded (2006)\05. Exilanation – Antiist (Deewhy Remix).wav
     Peak level 100.0 %
     Track quality 100.0 %
     Test CRC BBEFFCA7
     Copy CRC BBEFFCA7
     Track not present in AccurateRip database
     Copy OK
Track  6
     Filename D:\Exilanation - The Matrix Is Real Loaded (2006)\06. Exilanation – Love Religion (Reconstructed).wav
     Peak level 99.9 %
     Track quality 100.0 %
     Test CRC 844C78E8
     Copy CRC 844C78E8
     Track not present in AccurateRip database
     Copy OK
Track  7
     Filename D:\Exilanation - The Matrix Is Real Loaded (2006)\07. Exilanation – Infinity (Live Recorded).wav
     Peak level 100.0 %
     Track quality 99.9 %
     Test CRC 27ABEBCC
     Copy CRC 27ABEBCC
     Track not present in AccurateRip database
     Copy OK
Track  8
     Filename D:\Exilanation - The Matrix Is Real Loaded (2006)\08. Exilanation – Antiist (Legacy Of Music Remix).wav
     Peak level 100.0 %
     Track quality 100.0 %
     Test CRC F294D6CD
     Copy CRC F294D6CD
     Track not present in AccurateRip database
     Copy OK
Track  9
     Filename D:\Exilanation - The Matrix Is Real Loaded (2006)\09. Exilanation – Confusion (Fabrikc Remix).wav
     Peak level 100.0 %
     Track quality 99.9 %
     Test CRC 6ECE2128
     Copy CRC 6ECE2128
     Track not present in AccurateRip database
     Copy OK
Track 10
     Filename D:\Exilanation - The Matrix Is Real Loaded (2006)\10. Exilanation – The Matrix (F.O.D. Remix).wav
     Peak level 99.9 %
     Track quality 100.0 %
     Test CRC 2239DFAC
     Copy CRC 2239DFAC
     Track not present in AccurateRip database
     Copy OK
Track 11
     Filename D:\Exilanation - The Matrix Is Real Loaded (2006)\11. Exilanation – Where Angels Fear To Be (120 Bpm).wav
     Peak level 88.3 %
     Track quality 100.0 %
     Test CRC 3BBE9E34
     Copy CRC 3BBE9E34
     Track not present in AccurateRip database
     Copy OK
Track 12
     Filename D:\Exilanation - The Matrix Is Real Loaded (2006)\12. Exilanation – The Arrival (Homecoming).wav
     Peak level 97.9 %
     Track quality 100.0 %
     Test CRC B532E1C4
     Copy CRC B532E1C4
     Track not present in AccurateRip database
     Copy OK
Track 13
     Filename D:\Exilanation - The Matrix Is Real Loaded (2006)\13. Exilanation – Bonus part- 1 AM - Onethousand Beats (Exilanation Remake).wav
     Peak level 99.9 %
     Track quality 99.9 %
     Test CRC 2CD74064
     Copy CRC 2CD74064
     Track not present in AccurateRip database
     Copy OK
Track 14
     Filename D:\Exilanation - The Matrix Is Real Loaded (2006)\14. Exilanation – Bonus part- Rotersand - Almost Violent (Exilanation Remix).wav
     Peak level 100.0 %
     Track quality 100.0 %
     Test CRC EE53934F
     Copy CRC EE53934F
     Track not present in AccurateRip database
     Copy OK
Track 15
     Filename D:\Exilanation - The Matrix Is Real Loaded (2006)\15. Exilanation – Bonus part- In Coma - 15 Acid Team (Exilanation Remix).wav
     Peak level 99.9 %
     Track quality 99.9 %
     Test CRC A4DAF284
     Copy CRC A4DAF284
     Track not present in AccurateRip database
     Copy OK
Track 16
     Filename D:\Exilanation - The Matrix Is Real Loaded (2006)\16. Exilanation – Bonus part- Kartagon - 16 Pure Love (Exilanation Remix).wav
     Peak level 79.4 %
     Track quality 100.0 %
     Test CRC 15AA45EC
     Copy CRC 15AA45EC
     Track not present in AccurateRip database
     Copy OK
Track 17
     Filename D:\Exilanation - The Matrix Is Real Loaded (2006)\17. Exilanation – Bonus part- Access Denied - The Way (Exilanation Remix).wav
     Peak level 100.0 %
     Track quality 100.0 %
     Test CRC C0BC3887
     Copy CRC C0BC3887
     Track not present in AccurateRip database
     Copy OK
Track 18
     Filename D:\Exilanation - The Matrix Is Real Loaded (2006)\18. Exilanation – Bonus part- Pandique - Liebt Jeden (Exilanation Unplugged).wav
     Peak level 99.9 %
     Track quality 100.0 %
     Test CRC 182A71DD
     Copy CRC 182A71DD
     Track not present in AccurateRip database
     Copy OK
None of the tracks are present in the AccurateRip database
No errors occurred
End of status report
Код:
REM GENRE Electronic
REM DATE 2006
REM DISCID 0A127912
REM COMMENT "ExactAudioCopy v0.99pb5"
PERFORMER "Exilanation"
TITLE "The Matrix Is Real Loaded"
FILE "01. Exilanation – The Matrix (Radio Edit).wav" WAVE
  TRACK 01 AUDIO
    TITLE "The Matrix (Radio Edit)"
    PERFORMER "Exilanation"
    FLAGS DCP
    INDEX 01 00:00:00
FILE "02. Exilanation – Stronghold (Guitar Mix).wav" WAVE
  TRACK 02 AUDIO
    TITLE "Stronghold (Guitar Mix)"
    PERFORMER "Exilanation"
    FLAGS DCP
    INDEX 01 00:00:00
FILE "03. Exilanation – Mindslavery (Rough Mix).wav" WAVE
  TRACK 03 AUDIO
    TITLE "Mindslavery (Rough Mix)"
    PERFORMER "Exilanation"
    FLAGS DCP
    INDEX 01 00:00:00
FILE "04. Exilanation – Confusion (Mechanical Moth Remix).wav" WAVE
  TRACK 04 AUDIO
    TITLE "Confusion (Mechanical Moth Remix)"
    PERFORMER "Exilanation"
    FLAGS DCP
    INDEX 01 00:00:00
FILE "05. Exilanation – Antiist (Deewhy Remix).wav" WAVE
  TRACK 05 AUDIO
    TITLE "Antiist (Deewhy Remix)"
    PERFORMER "Exilanation"
    FLAGS DCP
    INDEX 01 00:00:00
FILE "06. Exilanation – Love Religion (Reconstructed).wav" WAVE
  TRACK 06 AUDIO
    TITLE "Love Religion (Reconstructed)"
    PERFORMER "Exilanation"
    FLAGS DCP
    INDEX 01 00:00:00
FILE "07. Exilanation – Infinity (Live Recorded).wav" WAVE
  TRACK 07 AUDIO
    TITLE "Infinity (Live Recorded)"
    PERFORMER "Exilanation"
    FLAGS DCP
    INDEX 01 00:00:00
FILE "08. Exilanation – Antiist (Legacy Of Music Remix).wav" WAVE
  TRACK 08 AUDIO
    TITLE "Antiist (Legacy Of Music Remix)"
    PERFORMER "Exilanation"
    FLAGS DCP
    INDEX 01 00:00:00
FILE "09. Exilanation – Confusion (Fabrikc Remix).wav" WAVE
  TRACK 09 AUDIO
    TITLE "Confusion (Fabrikc Remix)"
    PERFORMER "Exilanation"
    FLAGS DCP
    INDEX 01 00:00:00
FILE "10. Exilanation – The Matrix (F.O.D. Remix).wav" WAVE
  TRACK 10 AUDIO
    TITLE "The Matrix (F.O.D. Remix)"
    PERFORMER "Exilanation"
    FLAGS DCP
    INDEX 01 00:00:00
FILE "11. Exilanation – Where Angels Fear To Be (120 Bpm).wav" WAVE
  TRACK 11 AUDIO
    TITLE "Where Angels Fear To Be (120 Bpm)"
    PERFORMER "Exilanation"
    FLAGS DCP
    INDEX 01 00:00:00
FILE "12. Exilanation – The Arrival (Homecoming).wav" WAVE
  TRACK 12 AUDIO
    TITLE "The Arrival (Homecoming)"
    PERFORMER "Exilanation"
    FLAGS DCP
    INDEX 01 00:00:00
FILE "13. Exilanation – Bonus part- 1 AM - Onethousand Beats (Exilanation Remake).wav" WAVE
  TRACK 13 AUDIO
    TITLE "Bonus part: 1 AM - Onethousand Beats (Exilanation Remake)"
    PERFORMER "Exilanation"
    FLAGS DCP
    INDEX 01 00:00:00
FILE "14. Exilanation – Bonus part- Rotersand - Almost Violent (Exilanation Remix).wav" WAVE
  TRACK 14 AUDIO
    TITLE "Bonus part: Rotersand - Almost Violent (Exilanation Remix)"
    PERFORMER "Exilanation"
    FLAGS DCP
    INDEX 01 00:00:00
FILE "15. Exilanation – Bonus part- In Coma - 15 Acid Team (Exilanation Remix).wav" WAVE
  TRACK 15 AUDIO
    TITLE "Bonus part: In Coma - 15 Acid Team (Exilanation Remix)"
    PERFORMER "Exilanation"
    FLAGS DCP
    INDEX 01 00:00:00
FILE "16. Exilanation – Bonus part- Kartagon - 16 Pure Love (Exilanation Remix).wav" WAVE
  TRACK 16 AUDIO
    TITLE "Bonus part: Kartagon - 16 Pure Love (Exilanation Remix)"
    PERFORMER "Exilanation"
    FLAGS DCP
    INDEX 01 00:00:00
FILE "17. Exilanation – Bonus part- Access Denied - The Way (Exilanation Remix).wav" WAVE
  TRACK 17 AUDIO
    TITLE "Bonus part: Access Denied - The Way (Exilanation Remix)"
    PERFORMER "Exilanation"
    FLAGS DCP
    INDEX 01 00:00:00
FILE "18. Exilanation – Bonus part- Pandique - Liebt Jeden (Exilanation Unplugged).wav" WAVE
  TRACK 18 AUDIO
    TITLE "Bonus part: Pandique - Liebt Jeden (Exilanation Unplugged)"
    PERFORMER "Exilanation"
    FLAGS DCP
    INDEX 01 00:00:00
Код:
AUDIOCHECKER v2.0 beta (build 457) - by Dester - opdester@freemail.hu
~~~~~~~~~~~~~~~~~~~~~~~~~~~~~~~~~~
Started at: понедельник, 19. 07. 2010. - 20:41.57
18 files found
01 -===- D:\Exilanation - The Matrix Is Real Loaded (2006)\01. Exilanation – The Matrix (Radio Edit).flac
  Extracted successfully
  Conclusion: this track is CDDA with probability 100%
  Tempfile successfully deleted.
02 -===- D:\Exilanation - The Matrix Is Real Loaded (2006)\02. Exilanation – Stronghold (Guitar Mix).flac
  Extracted successfully
  Conclusion: this track is CDDA with probability 100%
  Tempfile successfully deleted.
03 -===- D:\Exilanation - The Matrix Is Real Loaded (2006)\03. Exilanation – Mindslavery (Rough Mix).flac
  Extracted successfully
  Conclusion: this track is CDDA with probability 100%
  Tempfile successfully deleted.
04 -===- D:\Exilanation - The Matrix Is Real Loaded (2006)\04. Exilanation – Confusion (Mechanical Moth Remix).flac
  Extracted successfully
  Conclusion: this track is CDDA with probability 99%
  Tempfile successfully deleted.
05 -===- D:\Exilanation - The Matrix Is Real Loaded (2006)\05. Exilanation – Antiist (Deewhy Remix).flac
  Extracted successfully
  Conclusion: this track is CDDA with probability 100%
  Tempfile successfully deleted.
06 -===- D:\Exilanation - The Matrix Is Real Loaded (2006)\06. Exilanation – Love Religion (Reconstructed).flac
  Extracted successfully
  Conclusion: this track is CDDA with probability 99%
  Tempfile successfully deleted.
07 -===- D:\Exilanation - The Matrix Is Real Loaded (2006)\07. Exilanation – Infinity (Live Recorded).flac
  Extracted successfully
  Conclusion: this track is MPEG with probability 95%
  Tempfile successfully deleted.
08 -===- D:\Exilanation - The Matrix Is Real Loaded (2006)\08. Exilanation – Antiist (Legacy Of Music Remix).flac
  Extracted successfully
  Conclusion: this track is MPEG with probability 99%
  Tempfile successfully deleted.
09 -===- D:\Exilanation - The Matrix Is Real Loaded (2006)\09. Exilanation – Confusion (Fabrikc Remix).flac
  Extracted successfully
  Conclusion: this track is CDDA with probability 100%
  Tempfile successfully deleted.
10 -===- D:\Exilanation - The Matrix Is Real Loaded (2006)\10. Exilanation – The Matrix (F.O.D. Remix).flac
  Extracted successfully
  Conclusion: this track is CDDA with probability 100%
  Tempfile successfully deleted.
11 -===- D:\Exilanation - The Matrix Is Real Loaded (2006)\11. Exilanation – Where Angels Fear To Be (120 Bpm).flac
  Extracted successfully
  Conclusion: this track is CDDA with probability 100%
  Tempfile successfully deleted.
12 -===- D:\Exilanation - The Matrix Is Real Loaded (2006)\12. Exilanation – The Arrival (Homecoming).flac
  Extracted successfully
  Conclusion: this track is CDDA with probability 100%
  Tempfile successfully deleted.
13 -===- D:\Exilanation - The Matrix Is Real Loaded (2006)\13. Exilanation – Bonus part- 1 AM - Onethousand Beats (Exilanation Remake).flac
  Extracted successfully
  Conclusion: this track is CDDA with probability 100%
  Tempfile successfully deleted.
14 -===- D:\Exilanation - The Matrix Is Real Loaded (2006)\14. Exilanation – Bonus part- Rotersand - Almost Violent (Exilanation Remix).flac
  Extracted successfully
  Conclusion: this track is CDDA with probability 100%
  Tempfile successfully deleted.
15 -===- D:\Exilanation - The Matrix Is Real Loaded (2006)\15. Exilanation – Bonus part- In Coma - 15 Acid Team (Exilanation Remix).flac
  Extracted successfully
  Conclusion: this track is CDDA with probability 100%
  Tempfile successfully deleted.
16 -===- D:\Exilanation - The Matrix Is Real Loaded (2006)\16. Exilanation – Bonus part- Kartagon - 16 Pure Love (Exilanation Remix).flac
  Extracted successfully
  Conclusion: this track is MPEG with probability 98%
  Tempfile successfully deleted.
17 -===- D:\Exilanation - The Matrix Is Real Loaded (2006)\17. Exilanation – Bonus part- Access Denied - The Way (Exilanation Remix).flac
  Extracted successfully
  Conclusion: this track is MPEG with probability 79%
  Tempfile successfully deleted.
18 -===- D:\Exilanation - The Matrix Is Real Loaded (2006)\18. Exilanation – Bonus part- Pandique - Liebt Jeden (Exilanation Unplugged).flac
  Extracted successfully
  Conclusion: this track is CDDA with probability 100%
  Tempfile successfully deleted.
Finished at: понедельник, 19. 07. 2010. - 20:47.13 (operation time: 0:05.15)
#777Год издания диска: 2007
Издатель (лейбл): Codeline Records
Номер по каталогу: CDL 003
Формат: CDr, Album (Limited to 250 CDs)
Продолжительность: 1:13:39.98
Треклист:
01. The Conquer [4:36]
02. Confusion (Asphyxia Remix) [3:43]
03. Sunshine in the Daylight [5:09]
04. Conjure (Project Pitchfork Cover) [5:46]
05. Sin (feat. Danny Marx Young) [3:58]
06. Beautiful (feat. Henrik Iversen) [4:37]
07. Confusion (Re:Legion Remix) [5:07]
08. Overture [1.0] [4:40]
09. Pressluft [4:28]
Live part:
10. Darklight (live in Trier) [3:27]
11. Apocalyptica (live in Flensburg) [5:51]
Bonus part:
12. !distain - The FLA (Exilanation Remix) [4:55]
13. Livida - Chamber (Exilanation Remix) [4:20]
14. Kehrwert - Jaw (Exilanation Remix) [4:37]
15. Die in Winter - Cold Love (Exilanation Remix) [4:41]
16. Blutzukker - Ich bin so wie ich bin (Exilanation Remix) [3:45]
Код:
Exact Audio Copy V0.99 prebeta 5 from 4. May 2009
EAC extraction logfile from 19. July 2010, 18:23
Exilanation / Sunshine in the Daylight
Used drive  : PLEXTOR DVDR   PX-880SA   Adapter: 0  ID: 2
Read mode               : Secure
Utilize accurate stream : Yes
Defeat audio cache      : Yes
Make use of C2 pointers : No
Read offset correction                      : 6
Overread into Lead-In and Lead-Out          : No
Fill up missing offset samples with silence : Yes
Delete leading and trailing silent blocks   : No
Null samples used in CRC calculations       : Yes
Used interface                              : Native Win32 interface for Win NT & 2000
Gap handling                                : Appended to previous track
Used output format              : User Defined Encoder
Selected bitrate                : 128 kBit/s
Quality                         : High
Add ID3 tag                     : No
Command line compressor         : C:\Program Files\Exact Audio Copy\Flac\flac.exe
Additional command line options : -8 -V -T "ARTIST=%a" -T "TITLE=%t" -T "ALBUM=%g" -T "DATE=%y" -T "TRACKNUMBER=%n" -T "GENRE=%m" -T "COMMENT=EAC FLAC -8" %s
TOC of the extracted CD
     Track |   Start  |  Length  | Start sector | End sector
    ---------------------------------------------------------
        1  |  0:00.00 |  4:36.00 |         0    |    20699
        2  |  4:36.00 |  3:43.00 |     20700    |    37424
        3  |  8:19.00 |  5:09.00 |     37425    |    60599
        4  | 13:28.00 |  5:46.00 |     60600    |    86549
        5  | 19:14.00 |  3:58.00 |     86550    |   104399
        6  | 23:12.00 |  4:37.00 |    104400    |   125174
        7  | 27:49.00 |  5:07.00 |    125175    |   148199
        8  | 32:56.00 |  4:39.58 |    148200    |   169182
        9  | 37:35.58 |  4:28.00 |    169183    |   189282
       10  | 42:03.58 |  3:27.16 |    189283    |   204823
       11  | 45:30.74 |  5:51.00 |    204824    |   231148
       12  | 51:21.74 |  4:55.00 |    231149    |   253273
       13  | 56:16.74 |  4:20.00 |    253274    |   272773
       14  | 60:36.74 |  4:37.00 |    272774    |   293548
       15  | 65:13.74 |  4:41.00 |    293549    |   314623
       16  | 69:54.74 |  3:45.00 |    314624    |   331498
Track  1
     Filename D:\Exilanation - Sunshine In The Daylight (2007)\01. Exilanation – The Conquer.wav
     Pre-gap length  0:00:02.00
     Peak level 100.0 %
     Track quality 100.0 %
     Test CRC ACE081EC
     Copy CRC ACE081EC
     Track not present in AccurateRip database
     Copy OK
Track  2
     Filename D:\Exilanation - Sunshine In The Daylight (2007)\02. Exilanation – Confusion (Asphyxia Remix).wav
     Pre-gap length  0:00:02.00
     Peak level 99.3 %
     Track quality 100.0 %
     Test CRC 6B150676
     Copy CRC 6B150676
     Track not present in AccurateRip database
     Copy OK
Track  3
     Filename D:\Exilanation - Sunshine In The Daylight (2007)\03. Exilanation – Sunshine in the Daylight.wav
     Pre-gap length  0:00:02.00
     Peak level 100.0 %
     Track quality 100.0 %
     Test CRC 5C1F2FB1
     Copy CRC 5C1F2FB1
     Track not present in AccurateRip database
     Copy OK
Track  4
     Filename D:\Exilanation - Sunshine In The Daylight (2007)\04. Exilanation – Conjure (Project Pitchfork Cover).wav
     Pre-gap length  0:00:02.00
     Peak level 99.7 %
     Track quality 99.9 %
     Test CRC DCF6EFAA
     Copy CRC DCF6EFAA
     Track not present in AccurateRip database
     Copy OK
Track  5
     Filename D:\Exilanation - Sunshine In The Daylight (2007)\05. Exilanation – Sin (feat. Danny Marx Young).wav
     Pre-gap length  0:00:02.00
     Peak level 100.0 %
     Track quality 100.0 %
     Test CRC 48119AF2
     Copy CRC 48119AF2
     Track not present in AccurateRip database
     Copy OK
Track  6
     Filename D:\Exilanation - Sunshine In The Daylight (2007)\06. Exilanation – Beautiful (feat. Henrik Iversen).wav
     Pre-gap length  0:00:02.00
     Peak level 100.0 %
     Track quality 100.0 %
     Test CRC C8D95991
     Copy CRC C8D95991
     Track not present in AccurateRip database
     Copy OK
Track  7
     Filename D:\Exilanation - Sunshine In The Daylight (2007)\07. Exilanation – Confusion (Re-Legion Remix).wav
     Pre-gap length  0:00:02.00
     Peak level 98.8 %
     Track quality 100.0 %
     Test CRC 081F7483
     Copy CRC 081F7483
     Track not present in AccurateRip database
     Copy OK
Track  8
     Filename D:\Exilanation - Sunshine In The Daylight (2007)\08. Exilanation – Overture [1.0].wav
     Pre-gap length  0:00:02.00
     Peak level 100.0 %
     Track quality 100.0 %
     Test CRC 29FC1B7B
     Copy CRC 29FC1B7B
     Track not present in AccurateRip database
     Copy OK
Track  9
     Filename D:\Exilanation - Sunshine In The Daylight (2007)\09. Exilanation – Pressluft.wav
     Pre-gap length  0:00:02.00
     Peak level 99.9 %
     Track quality 100.0 %
     Test CRC C9916197
     Copy CRC C9916197
     Track not present in AccurateRip database
     Copy OK
Track 10
     Filename D:\Exilanation - Sunshine In The Daylight (2007)\10. Exilanation – Live part- Darklight (live in Trier).wav
     Pre-gap length  0:00:02.00
     Peak level 99.4 %
     Track quality 99.9 %
     Test CRC E7AE935C
     Copy CRC E7AE935C
     Track not present in AccurateRip database
     Copy OK
Track 11
     Filename D:\Exilanation - Sunshine In The Daylight (2007)\11. Exilanation – Live part- Apocalyptica (live in Flensburg).wav
     Pre-gap length  0:00:02.00
     Peak level 98.5 %
     Track quality 99.9 %
     Test CRC AA77A74B
     Copy CRC AA77A74B
     Track not present in AccurateRip database
     Copy OK
Track 12
     Filename D:\Exilanation - Sunshine In The Daylight (2007)\12. Exilanation – Bonus part- !distain - The FLA (Exilanation Remix).wav
     Pre-gap length  0:00:02.00
     Peak level 100.0 %
     Track quality 100.0 %
     Test CRC D4E79078
     Copy CRC D4E79078
     Track not present in AccurateRip database
     Copy OK
Track 13
     Filename D:\Exilanation - Sunshine In The Daylight (2007)\13. Exilanation – Bonus part- Livida - Chamber (Exilanation Remix).wav
     Pre-gap length  0:00:02.00
     Peak level 99.5 %
     Track quality 99.9 %
     Test CRC ADA20E61
     Copy CRC ADA20E61
     Track not present in AccurateRip database
     Copy OK
Track 14
     Filename D:\Exilanation - Sunshine In The Daylight (2007)\14. Exilanation – Bonus part- Kehrwert - Jaw (Exilanation Remix).wav
     Pre-gap length  0:00:02.00
     Peak level 99.9 %
     Track quality 100.0 %
     Test CRC 357B8C35
     Copy CRC 357B8C35
     Track not present in AccurateRip database
     Copy OK
Track 15
     Filename D:\Exilanation - Sunshine In The Daylight (2007)\15. Exilanation – Bonus part- Die in Winter - Cold Love (Exilanation Remix).wav
     Pre-gap length  0:00:02.00
     Peak level 99.8 %
     Track quality 100.0 %
     Test CRC 23C3D2CB
     Copy CRC 23C3D2CB
     Track not present in AccurateRip database
     Copy OK
Track 16
     Filename D:\Exilanation - Sunshine In The Daylight (2007)\16. Exilanation – Bonus part- Blutzukker - Ich bin so wie ich bin (Exilanation Remix).wav
     Pre-gap length  0:00:02.00
     Peak level 99.9 %
     Track quality 100.0 %
     Test CRC 9810ED49
     Copy CRC 9810ED49
     Track not present in AccurateRip database
     Copy OK
None of the tracks are present in the AccurateRip database
No errors occurred
End of status report
Код:
REM GENRE Electronic
REM DATE 2008
REM DISCID F1114310
REM COMMENT "ExactAudioCopy v0.99pb5"
PERFORMER "Exilanation"
TITLE "Sunshine in the Daylight"
FILE "01. Exilanation – The Conquer.wav" WAVE
  TRACK 01 AUDIO
    TITLE "The Conquer"
    PERFORMER "Exilanation"
    FLAGS DCP
    INDEX 01 00:00:00
  TRACK 02 AUDIO
    TITLE "Confusion (Asphyxia Remix)"
    PERFORMER "Exilanation"
    FLAGS DCP
    INDEX 00 04:34:00
FILE "02. Exilanation – Confusion (Asphyxia Remix).wav" WAVE
    INDEX 01 00:00:00
  TRACK 03 AUDIO
    TITLE "Sunshine in the Daylight"
    PERFORMER "Exilanation"
    FLAGS DCP
    INDEX 00 03:41:00
FILE "03. Exilanation – Sunshine in the Daylight.wav" WAVE
    INDEX 01 00:00:00
  TRACK 04 AUDIO
    TITLE "Conjure (Project Pitchfork Cover)"
    PERFORMER "Exilanation"
    FLAGS DCP
    INDEX 00 05:07:00
FILE "04. Exilanation – Conjure (Project Pitchfork Cover).wav" WAVE
    INDEX 01 00:00:00
  TRACK 05 AUDIO
    TITLE "Sin (feat. Danny Marx Young)"
    PERFORMER "Exilanation"
    FLAGS DCP
    INDEX 00 05:44:00
FILE "05. Exilanation – Sin (feat. Danny Marx Young).wav" WAVE
    INDEX 01 00:00:00
  TRACK 06 AUDIO
    TITLE "Beautiful (feat. Henrik Iversen)"
    PERFORMER "Exilanation"
    FLAGS DCP
    INDEX 00 03:56:00
FILE "06. Exilanation – Beautiful (feat. Henrik Iversen).wav" WAVE
    INDEX 01 00:00:00
  TRACK 07 AUDIO
    TITLE "Confusion (Re:Legion Remix)"
    PERFORMER "Exilanation"
    FLAGS DCP
    INDEX 00 04:35:00
FILE "07. Exilanation – Confusion (Re-Legion Remix).wav" WAVE
    INDEX 01 00:00:00
  TRACK 08 AUDIO
    TITLE "Overture [1.0]"
    PERFORMER "Exilanation"
    FLAGS DCP
    INDEX 00 05:05:00
FILE "08. Exilanation – Overture [1.0].wav" WAVE
    INDEX 01 00:00:00
  TRACK 09 AUDIO
    TITLE "Pressluft"
    PERFORMER "Exilanation"
    FLAGS DCP
    INDEX 00 04:37:58
FILE "09. Exilanation – Pressluft.wav" WAVE
    INDEX 01 00:00:00
  TRACK 10 AUDIO
    TITLE "Live part: Darklight (live in Trier)"
    PERFORMER "Exilanation"
    FLAGS DCP
    INDEX 00 04:26:00
FILE "10. Exilanation – Live part- Darklight (live in Trier).wav" WAVE
    INDEX 01 00:00:00
  TRACK 11 AUDIO
    TITLE "Live part: Apocalyptica (live in Flensburg)"
    PERFORMER "Exilanation"
    FLAGS DCP
    INDEX 00 03:25:16
FILE "11. Exilanation – Live part- Apocalyptica (live in Flensburg).wav" WAVE
    INDEX 01 00:00:00
  TRACK 12 AUDIO
    TITLE "Bonus part: !distain - The FLA (Exilanation Remix)"
    PERFORMER "Exilanation"
    FLAGS DCP
    INDEX 00 05:49:00
FILE "12. Exilanation – Bonus part- !distain - The FLA (Exilanation Remix).wav" WAVE
    INDEX 01 00:00:00
  TRACK 13 AUDIO
    TITLE "Bonus part: Livida - Chamber (Exilanation Remix)"
    PERFORMER "Exilanation"
    FLAGS DCP
    INDEX 00 04:53:00
FILE "13. Exilanation – Bonus part- Livida - Chamber (Exilanation Remix).wav" WAVE
    INDEX 01 00:00:00
  TRACK 14 AUDIO
    TITLE "Bonus part: Kehrwert - Jaw (Exilanation Remix)"
    PERFORMER "Exilanation"
    FLAGS DCP
    INDEX 00 04:18:00
FILE "14. Exilanation – Bonus part- Kehrwert - Jaw (Exilanation Remix).wav" WAVE
    INDEX 01 00:00:00
  TRACK 15 AUDIO
    TITLE "Bonus part: Die in Winter - Cold Love (Exilanation Remix)"
    PERFORMER "Exilanation"
    FLAGS DCP
    INDEX 00 04:35:00
FILE "15. Exilanation – Bonus part- Die in Winter - Cold Love (Exilanation Remix).wav" WAVE
    INDEX 01 00:00:00
  TRACK 16 AUDIO
    TITLE "Bonus part: Blutzukker - Ich bin so wie ich bin (Exilanation Remix)"
    PERFORMER "Exilanation"
    FLAGS DCP
    INDEX 00 04:39:00
FILE "16. Exilanation – Bonus part- Blutzukker - Ich bin so wie ich bin (Exilanation Remix).wav" WAVE
    INDEX 01 00:00:00
Код:
AUDIOCHECKER v2.0 beta (build 457) - by Dester - opdester@freemail.hu
~~~~~~~~~~~~~~~~~~~~~~~~~~~~~~~~~~
Started at: понедельник, 19. 07. 2010. - 18:26.38
16 files found
01 -===- D:\Exilanation - Sunshine In The Daylight (2007)\01. Exilanation – The Conquer.flac
  Extracted successfully
  Conclusion: this track is CDDA with probability 100%
  Tempfile successfully deleted.
02 -===- D:\Exilanation - Sunshine In The Daylight (2007)\02. Exilanation – Confusion (Asphyxia Remix).flac
  Extracted successfully
  Conclusion: this track is CDDA with probability 100%
  Tempfile successfully deleted.
03 -===- D:\Exilanation - Sunshine In The Daylight (2007)\03. Exilanation – Sunshine in the Daylight.flac
  Extracted successfully
  Conclusion: this track is CDDA with probability 100%
  Tempfile successfully deleted.
04 -===- D:\Exilanation - Sunshine In The Daylight (2007)\04. Exilanation – Conjure (Project Pitchfork Cover).flac
  Extracted successfully
  Conclusion: this track is CDDA with probability 100%
  Tempfile successfully deleted.
05 -===- D:\Exilanation - Sunshine In The Daylight (2007)\05. Exilanation – Sin (feat. Danny Marx Young).flac
  Extracted successfully
  Conclusion: this track is CDDA with probability 100%
  Tempfile successfully deleted.
06 -===- D:\Exilanation - Sunshine In The Daylight (2007)\06. Exilanation – Beautiful (feat. Henrik Iversen).flac
  Extracted successfully
  Conclusion: this track is CDDA with probability 100%
  Tempfile successfully deleted.
07 -===- D:\Exilanation - Sunshine In The Daylight (2007)\07. Exilanation – Confusion (Re-Legion Remix).flac
  Extracted successfully
  Conclusion: this track is CDDA with probability 100%
  Tempfile successfully deleted.
08 -===- D:\Exilanation - Sunshine In The Daylight (2007)\08. Exilanation – Overture [1.0].flac
  Extracted successfully
  Conclusion: this track is CDDA with probability 100%
  Tempfile successfully deleted.
09 -===- D:\Exilanation - Sunshine In The Daylight (2007)\09. Exilanation – Pressluft.flac
  Extracted successfully
  Conclusion: this track is CDDA with probability 100%
  Tempfile successfully deleted.
10 -===- D:\Exilanation - Sunshine In The Daylight (2007)\10. Exilanation – Live part- Darklight (live in Trier).flac
  Extracted successfully
  Conclusion: this track is CDDA with probability 100%
  Tempfile successfully deleted.
11 -===- D:\Exilanation - Sunshine In The Daylight (2007)\11. Exilanation – Live part- Apocalyptica (live in Flensburg).flac
  Extracted successfully
  Conclusion: this track is CDDA with probability 85%
  Tempfile successfully deleted.
12 -===- D:\Exilanation - Sunshine In The Daylight (2007)\12. Exilanation – Bonus part- !distain - The FLA (Exilanation Remix).flac
  Extracted successfully
  Conclusion: this track is CDDA with probability 100%
  Tempfile successfully deleted.
13 -===- D:\Exilanation - Sunshine In The Daylight (2007)\13. Exilanation – Bonus part- Livida - Chamber (Exilanation Remix).flac
  Extracted successfully
  Conclusion: this track is CDDA with probability 100%
  Tempfile successfully deleted.
14 -===- D:\Exilanation - Sunshine In The Daylight (2007)\14. Exilanation – Bonus part- Kehrwert - Jaw (Exilanation Remix).flac
  Extracted successfully
  Conclusion: this track is CDDA with probability 100%
  Tempfile successfully deleted.
15 -===- D:\Exilanation - Sunshine In The Daylight (2007)\15. Exilanation – Bonus part- Die in Winter - Cold Love (Exilanation Remix).flac
  Extracted successfully
  Conclusion: this track is CDDA with probability 100%
  Tempfile successfully deleted.
16 -===- D:\Exilanation - Sunshine In The Daylight (2007)\16. Exilanation – Bonus part- Blutzukker - Ich bin so wie ich bin (Exilanation Remix).flac
  Extracted successfully
  Conclusion: this track is CDDA with probability 100%
  Tempfile successfully deleted.
Finished at: понедельник, 19. 07. 2010. - 18:31.44 (operation time: 0:05.05)
Правила, инструкции, FAQ!!!
Торрент  Добавлен [26 июн 2020, 17:02] Скачать торрент Магнет ссылка
Скачать торрент
[ Размер 27.04 КБ / Просмотров 2 ]

Статус
Проверен 
 
Размер  1.82 ГБ
Приватный: Нет (DHT включён)
.torrent скачан  0
 


     Отправить личное сообщение
   
Страница 1 из 1
Показать сообщения за:  Поле сортировки  
Начать новую тему Ответить на тему


Сейчас этот форум просматривают: нет зарегистрированных пользователей и гости: 0


Вы не можете начинать темы
Вы не можете отвечать на сообщения
Вы не можете редактировать свои сообщения
Вы не можете удалять свои сообщения
Вы не можете добавлять вложения

Перейти:  
cron