Начать новую тему Ответить на тему
Статистика раздачи
Размер: 929.77 МБ | Добавлен: 26 июн 2020, 17:05 | Скачали: 0
Сидеров: 0  [0 байт/сек]    Личеров: 0  [0 байт/сек]
Пред. тема | След. тема 

Автор
Сообщение

СообщениеДобавлено: 26 июн 2020, 17:05 

Ответить с цитатой 

Der Prager Handgriff / Handarbeiten
Жанр: Electronic, EBM
Страна-производитель диска: Austria
Год издания диска: 2005
Издатель (лейбл): Electric Blue
Номер по каталогу: AUS 3015-2 CD
Страна: Germany
Аудиокодек: FLAC (*.flac)
Тип рипа: image+.cue
Битрейт аудио: lossless
Продолжительность: CD1 - 57:56, CD2 - 62:02
Источник (релизер): свой диск
Наличие сканов в содержимом раздачи: да
Треклист:
1.01 Arbeit, Sport Und Spiel 6:17
1.02 Schlagende Wetter (Hartz IV Remix) 4:45
1.03 Schindluder (Fast & Loose Mix) 3:59
1.04 Frontal (B7 Remix) 4:14
1.05 Monsun (Hitzschlag Mix) 3:53
1.06 1000 Feuer (Phoenix Mix) 4:37
1.07 Traumsequenz (Trauma Mix) 4:49
1.08 Elektrostahl (Ruhrstahl Mix) 4:27
1.09 Klaustrophobie (Manfred K. Mix) 3:18
1.10 Kick & Rush (Giuseppe-Meazza Mix) 5:03
1.11 Bilder Meiner Angst (Nachtmahr Remix) 4:37
1.12 Schöne Neue Welt (Aldous Mix) 4:05
1.13 Maschinensturm (Weber Mix) 3:45
2.01 Alles Das Und Gar Nichts 6:13
2.02 Deutschland? (Wintermärchen Mix) 5:19
2.03 Sehnsucht (Puszta Mix) 6:33
2.04 Schwermetall (Montan Remix) 4:27
2.05 Herzblut (Kardio Mix) 4:35
2.06 Tibet (Dalai Lama Mix) 3:52
2.07 Augenblick (Inkubator Remix) 4:31
2.08 Baskerville (Sir Arthur Mix) 5:00
2.09 Unter Der Stadt (Dixie Remix) 6:23
2.10 Natur (Flora & Fauna Mix) 6:00
2.11 Zu Viele Worte (Legasthenie Mix) 4:53
2.12 Zukunftsmusik (Vorwärts Mix) 4:11
Код:
Exact Audio Copy V0.99 prebeta 5 from 4. May 2009
EAC extraction logfile from 8. June 2011, 23:07
Prager Handgriff / Handarbeiten
Used drive  : _NEC    DVD_RW ND-4551A   Adapter: 1  ID: 0
Read mode               : Secure
Utilize accurate stream : Yes
Defeat audio cache      : Yes
Make use of C2 pointers : No
Read offset correction                      : 48
Overread into Lead-In and Lead-Out          : No
Fill up missing offset samples with silence : Yes
Delete leading and trailing silent blocks   : No
Null samples used in CRC calculations       : Yes
Used interface                              : Native Win32 interface for Win NT & 2000
Used output format : Internal WAV Routines
Sample format      : 44.100 Hz; 16 Bit; Stereo
TOC of the extracted CD
     Track |   Start  |  Length  | Start sector | End sector
    ---------------------------------------------------------
        1  |  0:00.00 |  6:17.24 |         0    |    28298
        2  |  6:17.24 |  4:45.72 |     28299    |    49745
        3  | 11:03.21 |  3:59.48 |     49746    |    67718
        4  | 15:02.69 |  4:14.09 |     67719    |    86777
        5  | 19:17.03 |  3:53.06 |     86778    |   104258
        6  | 23:10.09 |  4:37.24 |    104259    |   125057
        7  | 27:47.33 |  4:49.53 |    125058    |   146785
        8  | 32:37.11 |  4:27.24 |    146786    |   166834
        9  | 37:04.35 |  3:18.66 |    166835    |   181750
       10  | 40:23.26 |  5:03.55 |    181751    |   204530
       11  | 45:27.06 |  4:37.39 |    204531    |   225344
       12  | 50:04.45 |  4:05.48 |    225345    |   243767
       13  | 54:10.18 |  3:45.37 |    243768    |   260679
Range status and errors
Selected range
     Filename D:\EAC rips\Prager Handgriff - Handarbeiten [CD1].wav
     Peak level 97.7 %
     Range quality 99.9 %
     Test CRC EBCA39C8
     Copy CRC EBCA39C8
     Copy OK
No errors occurred
AccurateRip summary
Track  1  accurately ripped (confidence 3)  [C41B7C5F]
Track  2  accurately ripped (confidence 3)  [CB7B1A1B]
Track  3  accurately ripped (confidence 3)  [993E468D]
Track  4  accurately ripped (confidence 3)  [3409915F]
Track  5  accurately ripped (confidence 3)  [4FB0CE23]
Track  6  accurately ripped (confidence 3)  [A0D1CF62]
Track  7  accurately ripped (confidence 3)  [274593CA]
Track  8  accurately ripped (confidence 3)  [3E2BE6EC]
Track  9  accurately ripped (confidence 3)  [1358E942]
Track 10  accurately ripped (confidence 3)  [7B8F3FE8]
Track 11  accurately ripped (confidence 3)  [078F2556]
Track 12  accurately ripped (confidence 3)  [F9740FDC]
Track 13  accurately ripped (confidence 3)  [2754EDA9]
All tracks accurately ripped
End of status report
Код:
REM GENRE Electronic
REM DATE 2005
PERFORMER "Der Prager Handgriff"
TITLE "Handarbeiten (disc 1)"
FILE "Prager Handgriff - Handarbeiten [CD1].flac" WAVE
  TRACK 01 AUDIO
    TITLE "Arbeit, Sport und Spiele"
    INDEX 01 00:00:00
  TRACK 02 AUDIO
    TITLE "Schlagende Wetter (Hartz IV Remix)"
    INDEX 00 06:15:24
    INDEX 01 06:17:24
  TRACK 03 AUDIO
    TITLE "Schindluder (Fast & Loose Mix)"
    INDEX 00 11:01:21
    INDEX 01 11:03:21
  TRACK 04 AUDIO
    TITLE "Frontal (B7 Remix)"
    INDEX 00 15:00:69
    INDEX 01 15:02:69
  TRACK 05 AUDIO
    TITLE "Monsun (Hitzschlag Mix)"
    INDEX 00 19:15:03
    INDEX 01 19:17:03
  TRACK 06 AUDIO
    TITLE "1000 Feuer (Phoenix Mix)"
    INDEX 00 23:08:09
    INDEX 01 23:10:09
  TRACK 07 AUDIO
    TITLE "Traumsequenz (Trauma Mix)"
    INDEX 00 27:45:33
    INDEX 01 27:47:33
  TRACK 08 AUDIO
    TITLE "Elektrostahl (Ruhrstahl Mix)"
    INDEX 00 32:35:11
    INDEX 01 32:37:11
  TRACK 09 AUDIO
    TITLE "Klaustrophobie (Manfred K. Mix)"
    INDEX 00 37:02:35
    INDEX 01 37:04:35
  TRACK 10 AUDIO
    TITLE "Kick & Rush (Guiseppe-Meazza Mix)"
    INDEX 00 40:21:26
    INDEX 01 40:23:26
  TRACK 11 AUDIO
    TITLE "Bilder meiner Angst (Nachtmahr Remix)"
    INDEX 00 45:25:06
    INDEX 01 45:27:06
  TRACK 12 AUDIO
    TITLE "Schone Neue Welt (Aldous Mix)"
    INDEX 00 50:02:45
    INDEX 01 50:04:45
  TRACK 13 AUDIO
    TITLE "Maschinensturm (Weber Mix)"
    INDEX 00 54:08:18
    INDEX 01 54:10:18
Код:
AUDIOCHECKER v2.0 beta (build 457) - by Dester - opdester@freemail.hu
~~~~~~~~~~~~~~~~~~~~~~~~~~~~~~~~~~
-=== DO NOT EDIT THIS FILE! ===-
Path: ...\EAC rips
1 -=- Prager Handgriff - Handarbeiten [CD1].flac -=- CDDA (100%)
138987028
Код:
Exact Audio Copy V0.99 prebeta 5 from 4. May 2009
EAC extraction logfile from 8. June 2011, 23:34
Prager Handgriff / Handarbeiten
Used drive  : _NEC    DVD_RW ND-4551A   Adapter: 1  ID: 0
Read mode               : Secure
Utilize accurate stream : Yes
Defeat audio cache      : Yes
Make use of C2 pointers : No
Read offset correction                      : 48
Overread into Lead-In and Lead-Out          : No
Fill up missing offset samples with silence : Yes
Delete leading and trailing silent blocks   : No
Null samples used in CRC calculations       : Yes
Used interface                              : Native Win32 interface for Win NT & 2000
Used output format : Internal WAV Routines
Sample format      : 44.100 Hz; 16 Bit; Stereo
TOC of the extracted CD
     Track |   Start  |  Length  | Start sector | End sector
    ---------------------------------------------------------
        1  |  0:00.00 |  6:13.38 |         0    |    28012
        2  |  6:13.38 |  5:19.27 |     28013    |    51964
        3  | 11:32.65 |  6:33.73 |     51965    |    81512
        4  | 18:06.63 |  4:27.68 |     81513    |   101605
        5  | 22:34.56 |  4:35.24 |    101606    |   122254
        6  | 27:10.05 |  3:52.12 |    122255    |   139666
        7  | 31:02.17 |  4:31.05 |    139667    |   159996
        8  | 35:33.22 |  5:00.51 |    159997    |   182547
        9  | 40:33.73 |  6:23.54 |    182548    |   211326
       10  | 46:57.52 |  6:00.24 |    211327    |   238350
       11  | 52:58.01 |  4:53.01 |    238351    |   260326
       12  | 57:51.02 |  4:11.09 |    260327    |   279160
Range status and errors
Selected range
     Filename D:\EAC rips\Prager Handgriff - Handarbeiten [CD2].wav
     Peak level 97.7 %
     Range quality 100.0 %
     Test CRC 47076F08
     Copy CRC 47076F08
     Copy OK
No errors occurred
AccurateRip summary
Track  1  accurately ripped (confidence 2)  [6FD9BF32]
Track  2  accurately ripped (confidence 3)  [D0F14B91]
Track  3  accurately ripped (confidence 3)  [46E4E32E]
Track  4  accurately ripped (confidence 3)  [DFFA3504]
Track  5  accurately ripped (confidence 3)  [D52338D4]
Track  6  accurately ripped (confidence 3)  [4A000869]
Track  7  accurately ripped (confidence 3)  [44BDBB76]
Track  8  accurately ripped (confidence 3)  [1FC1229F]
Track  9  accurately ripped (confidence 3)  [D2B53C40]
Track 10  accurately ripped (confidence 3)  [B93A3B9C]
Track 11  accurately ripped (confidence 3)  [310C3376]
Track 12  accurately ripped (confidence 3)  [13B4980F]
All tracks accurately ripped
End of status report
Код:
REM GENRE Electronic
REM DATE 2005
PERFORMER "Der Prager Handgriff"
TITLE "Handarbeiten (disc 2)"
FILE "Prager Handgriff - Handarbeiten [CD2].flac" WAVE
  TRACK 01 AUDIO
    TITLE "Alles das und gar nichts"
    INDEX 01 00:00:00
  TRACK 02 AUDIO
    TITLE "Deutschland ? (Wintermarchen Mix)"
    INDEX 00 06:11:38
    INDEX 01 06:13:38
  TRACK 03 AUDIO
    TITLE "Sehnsucht (Puszta Mix)"
    INDEX 00 11:30:65
    INDEX 01 11:32:65
  TRACK 04 AUDIO
    TITLE "Schwermetall (Montan Remix)"
    INDEX 00 18:04:63
    INDEX 01 18:06:63
  TRACK 05 AUDIO
    TITLE "Herzblut (Kardio Mix)"
    INDEX 00 22:32:56
    INDEX 01 22:34:56
  TRACK 06 AUDIO
    TITLE "Tibet (Dalai Lama Mix)"
    INDEX 00 27:08:05
    INDEX 01 27:10:05
  TRACK 07 AUDIO
    TITLE "Augenblick (Inkubator Remix)"
    INDEX 00 31:00:17
    INDEX 01 31:02:17
  TRACK 08 AUDIO
    TITLE "Baskerville (Sir Arthur Mix)"
    INDEX 00 35:31:22
    INDEX 01 35:33:22
  TRACK 09 AUDIO
    TITLE "Unter der Stadt (Dixie Remix)"
    INDEX 00 40:31:73
    INDEX 01 40:33:73
  TRACK 10 AUDIO
    TITLE "Natur (Flora & Fauna Mix)"
    INDEX 00 46:55:52
    INDEX 01 46:57:52
  TRACK 11 AUDIO
    TITLE "Zu viele Worte (Legasthenie Mix)"
    INDEX 00 52:56:01
    INDEX 01 52:58:01
  TRACK 12 AUDIO
    TITLE "Zukunftsmusik (Vorwarts Mix)"
    INDEX 00 57:49:02
    INDEX 01 57:51:02
Код:
AUDIOCHECKER v2.0 beta (build 457) - by Dester - opdester@freemail.hu
~~~~~~~~~~~~~~~~~~~~~~~~~~~~~~~~~~
-=== DO NOT EDIT THIS FILE! ===-
Path: ...\EAC rips
1 -=- Prager Handgriff - Handarbeiten [CD2].flac -=- CDDA (100%)
139445780
Правила, инструкции, FAQ!!!
Торрент  Добавлен [26 июн 2020, 17:05] Скачать торрент Магнет ссылка
Скачать торрент
[ Размер 19.25 КБ / Просмотров 3 ]

Статус
Проверен 
 
Размер  929.77 МБ
Приватный: Нет (DHT включён)
.torrent скачан  0
 


     Отправить личное сообщение
   
Страница 1 из 1
Показать сообщения за:  Поле сортировки  
Начать новую тему Ответить на тему


Сейчас этот форум просматривают: нет зарегистрированных пользователей и гости: 0


Вы не можете начинать темы
Вы не можете отвечать на сообщения
Вы не можете редактировать свои сообщения
Вы не можете удалять свои сообщения
Вы не можете добавлять вложения

Перейти:  
cron