Начать новую тему Ответить на тему
Статистика раздачи
Размер: 302.68 МБ | Добавлен: 26 июн 2020, 19:46 | Скачали: 0
Сидеров: 0  [0 байт/сек]    Личеров: 0  [0 байт/сек]
Пред. тема | След. тема 

Автор
Сообщение

СообщениеДобавлено: 26 июн 2020, 19:46 

Ответить с цитатой 

Neikka RPM - Rise Of The 13th Serpent
Жанр: Electronic, EBM, Dark Electro
Год выпуска диска: 2006
Производитель диска: Soyuz Music, Россия
Аудио кодек: FLAC
Тип рипа: tracks+.cue
Битрейт аудио: lossless
Продолжительность: 46:43
Треклист:
01 This Chapter Opens - 2:09
02 Demon Breeder - 4:08
03 Shackles Of Steel - 3:33
04 Spread MyselfMy Sex On You - 4:06
05 Sacrifice - 4:14
06 Chained To My Rib Cage - 4:16
07 My Innocence Is Gone - 4:36
08 Storm Of Hell - 4:18
09 Kill All Machines - 3:02
10 Find A Way - 3:42
11 Voyeur - 3:17
12 I Ride The Flames - 3:12
13 This Chapter Closed - 2:09
Доп. информация: Инфо с бумажечки IndieВИД (прилагалась к диску):
Записанный в течение 30 месяцев......лучше отсканирую, думаю и Вам приятнее будет увидеть лично
Exact Audio Copy V0.99 prebeta 5 from 4. May 2009
EAC extraction logfile from 30. August 2010, 12:50
Neikka Rpm / The Rise of the 13th Serpent
Used drive : PIONEER DVD-RW DVR-115D Adapter: 1 ID: 1
Read mode : Secure
Utilize accurate stream : Yes
Defeat audio cache : Yes
Make use of C2 pointers : No
Read offset correction : 48
Overread into Lead-In and Lead-Out : No
Fill up missing offset samples with silence : Yes
Delete leading and trailing silent blocks : No
Null samples used in CRC calculations : Yes
Used interface : Installed external ASPI interface
Gap handling : Appended to previous track
Used output format : User Defined Encoder
Selected bitrate : 768 kBit/s
Quality : High
Add ID3 tag : No
Command line compressor : C:\Program Files\Exact Audio Copy\FLAC\FLAC.EXE
Additional command line options : -8 -V -T "ARTIST=%a" -T "TITLE=%t" -T "ALBUM=%g" -T "DATE=%y" -T "TRACKNUMBER=%n" -T "GENRE=%m" -T "COMMENT=EAC FLAC -8" %s
TOC of the extracted CD
Track | Start | Length | Start sector | End sector
---------------------------------------------------------
1 | 0:00.00 | 2:09.19 | 0 | 9693
2 | 2:09.19 | 4:07.57 | 9694 | 28275
3 | 6:17.01 | 3:33.34 | 28276 | 44284
4 | 9:50.35 | 4:06.15 | 44285 | 62749
5 | 13:56.50 | 4:13.71 | 62750 | 81795
6 | 18:10.46 | 4:16.15 | 81796 | 101010
7 | 22:26.61 | 4:36.37 | 101011 | 121747
8 | 27:03.23 | 4:17.69 | 121748 | 141091
9 | 31:21.17 | 3:01.57 | 141092 | 154723
10 | 34:22.74 | 3:42.12 | 154724 | 171385
11 | 38:05.11 | 3:17.20 | 171386 | 186180
12 | 41:22.31 | 3:11.56 | 186181 | 200561
13 | 44:34.12 | 2:09.18 | 200562 | 210254
Track 1
Filename T:\Neikka.RPM\01. This Chapter Opens - The Rise of the 13th Serpent.wav
Pre-gap length 0:00:02.00
Peak level 100.0 %
Track quality 100.0 %
Test CRC 8E4D3521
Copy CRC 8E4D3521
Copy OK
Track 2
Filename T:\Neikka.RPM\02. Demon Breeder - The Rise of the 13th Serpent.wav
Pre-gap length 0:00:02.00
Peak level 100.0 %
Track quality 100.0 %
Test CRC F5FA4C89
Copy CRC F5FA4C89
Copy OK
Track 3
Filename T:\Neikka.RPM\03. Shackles of Steel (Rust through Me) feat. J3 of а;grumh… - The Rise of the 13th Serpent.wav
Pre-gap length 0:00:02.00
Peak level 100.0 %
Track quality 100.0 %
Test CRC 4A966776
Copy CRC 4A966776
Copy OK
Track 4
Filename T:\Neikka.RPM\04. Spread Myself-My Sex on You - The Rise of the 13th Serpent.wav
Pre-gap length 0:00:02.00
Peak level 100.0 %
Track quality 100.0 %
Test CRC 43109214
Copy CRC 43109214
Copy OK
Track 5
Filename T:\Neikka.RPM\05. Sacrifice (Sever the Delusion) feat. Claus Larsen of Leaethe - The Rise of the 13th Serpent.wav
Pre-gap length 0:00:02.00
Peak level 100.0 %
Track quality 100.0 %
Test CRC A44EEDDF
Copy CRC A44EEDDF
Copy OK
Track 6
Filename T:\Neikka.RPM\06. Chained to My Rib Cage - The Rise of the 13th Serpent.wav
Pre-gap length 0:00:02.00
Peak level 100.0 %
Track quality 100.0 %
Test CRC 1F5C5508
Copy CRC 1F5C5508
Copy OK
Track 7
Filename T:\Neikka.RPM\07. My Innocence Is Gone feat. Claus Kruse of Plastic Noise Expe - The Rise of the 13th Serpent.wav
Pre-gap length 0:00:02.00
Peak level 100.0 %
Track quality 100.0 %
Test CRC F6959EE6
Copy CRC F6959EE6
Copy OK
Track 8
Filename T:\Neikka.RPM\08. Storm of Hell feat. Rexx Arkana of FGFC820 - The Rise of the 13th Serpent.wav
Pre-gap length 0:00:02.00
Peak level 100.0 %
Track quality 99.9 %
Test CRC 3AF2DDEC
Copy CRC 3AF2DDEC
Copy OK
Track 9
Filename T:\Neikka.RPM\09. Kill All Machines feat. Kenji Siratori - The Rise of the 13th Serpent.wav
Pre-gap length 0:00:02.00
Peak level 100.0 %
Track quality 100.0 %
Test CRC 0DAB650E
Copy CRC 0DAB650E
Copy OK
Track 10
Filename T:\Neikka.RPM\10. Find A Way feat. Len Lemeire of Implant - The Rise of the 13th Serpent.wav
Pre-gap length 0:00:02.00
Peak level 100.0 %
Track quality 99.9 %
Test CRC 4CA78192
Copy CRC 4CA78192
Copy OK
Track 11
Filename T:\Neikka.RPM\11. Voyeur - The Rise of the 13th Serpent.wav
Pre-gap length 0:00:02.00
Peak level 100.0 %
Track quality 100.0 %
Test CRC A209ABD0
Copy CRC A209ABD0
Copy OK
Track 12
Filename T:\Neikka.RPM\12. I Ride the Flames - The Rise of the 13th Serpent.wav
Pre-gap length 0:00:02.00
Peak level 100.0 %
Track quality 100.0 %
Test CRC 66695437
Copy CRC 66695437
Copy OK
Track 13
Filename T:\Neikka.RPM\13. This Chapter Closes - The Rise of the 13th Serpent.wav
Pre-gap length 0:00:02.00
Peak level 100.0 %
Track quality 100.0 %
Test CRC 07FF4BC4
Copy CRC 07FF4BC4
Copy OK
No errors occurred
End of status report
Правила, инструкции, FAQ!!!
Торрент  Добавлен [26 июн 2020, 19:46] Скачать торрент Магнет ссылка
Скачать торрент
[ Размер 13.87 КБ / Просмотров 8 ]

Статус
Проверен 
 
Размер  302.68 МБ
Приватный: Нет (DHT включён)
.torrent скачан  0
 


     Отправить личное сообщение
   
Страница 1 из 1
Показать сообщения за:  Поле сортировки  
Начать новую тему Ответить на тему


Сейчас этот форум просматривают: нет зарегистрированных пользователей и гости: 0


Вы не можете начинать темы
Вы не можете отвечать на сообщения
Вы не можете редактировать свои сообщения
Вы не можете удалять свои сообщения
Вы не можете добавлять вложения

Перейти:  
cron