Начать новую тему Ответить на тему
Статистика раздачи
Размер: 409.28 МБ | Добавлен: 26 июн 2020, 17:57 | Скачали: 0
Сидеров: 0  [0 байт/сек]    Личеров: 0  [0 байт/сек]
Пред. тема | След. тема 

Автор
Сообщение

СообщениеДобавлено: 26 июн 2020, 17:57 

Ответить с цитатой 

Deutsch Amerikanische Freundschaft / D.A.F. - untitled
Жанр: Electronic, EBM
Страна-производитель диска: West Germany
Год издания: 1988
Издатель (лейбл): Virgin Schallplatten GmbH
Номер по каталогу: CDV2533
Matrix number: SONOPRESS 258961 B
Страна: Deutschland
Аудиокодек: FLAC (*.flac)
Тип рипа: image+.cue (log&cue embedded)
Битрейт аудио: lossless
Продолжительность: 62:01
Источник (релизер): Личная коллекция
Наличие сканов в содержимом раздачи: да (combined 300 & 600 dpi)
Треклист:
01. [3:48] Verschwende deine Jugend
02. [3:55] Der Mussolini - .88 Remix
03. [4:28] Mein Herz macht Bum
04. [3:33] El Que
05. [3:07] Ich und die Wirklichkeit
06. [3:02] Die Götter sind Weiss
07. [3:28] Der Räuber und der Prinz
08. [5:58] Liebe auf den ersten Blick - .88 Remix
09. [4:12] Im Dschungel der Liebe
10. [4:19] Prinzessin
11. [3:41] Greif nach den Sternen
12. [4:02] Kebabträume
13. [3:11] Die Lippe
14. [3:25] Als wärs das letzte Mal
15. [3:54] Der Mussolini - original version
16. [3:58] Liebe auf den ersten Blick - original version
Код:
Exact Audio Copy V1.0 beta 3 from 29. August 2011
EAC extraction logfile from 27. May 2012, 14:42
Deutsch Amerikanische Freundschaft / D.A.F. (Virgin, CDV2533)
Used drive  : ASUS    DRW-24B1ST   Adapter: 3  ID: 0
Read mode               : Secure
Utilize accurate stream : Yes
Defeat audio cache      : Yes
Make use of C2 pointers : No
Read offset correction                      : 6
Overread into Lead-In and Lead-Out          : No
Fill up missing offset samples with silence : Yes
Delete leading and trailing silent blocks   : No
Null samples used in CRC calculations       : Yes
Used interface                              : Native Win32 interface for Win NT & 2000
Used output format              : User Defined Encoder
Selected bitrate                : 1024 kBit/s
Quality                         : High
Add ID3 tag                     : No
Command line compressor         : C:\Program Files\FLAC\flac.exe
Additional command line options : -8 -V %source% -o %dest%
TOC of the extracted CD
     Track |   Start  |  Length  | Start sector | End sector
    ---------------------------------------------------------
        1  |  0:00.00 |  3:47.70 |         0    |    17094
        2  |  3:47.70 |  3:55.17 |     17095    |    34736
        3  |  7:43.12 |  4:28.03 |     34737    |    54839
        4  | 12:11.15 |  3:33.02 |     54840    |    70816
        5  | 15:44.17 |  3:07.23 |     70817    |    84864
        6  | 18:51.40 |  3:01.60 |     84865    |    98499
        7  | 21:53.25 |  3:28.30 |     98500    |   114129
        8  | 25:21.55 |  5:58.05 |    114130    |   140984
        9  | 31:19.60 |  4:12.02 |    140985    |   159886
       10  | 35:31.62 |  4:18.45 |    159887    |   179281
       11  | 39:50.32 |  3:41.00 |    179282    |   195856
       12  | 43:31.32 |  4:01.55 |    195857    |   213986
       13  | 47:33.12 |  3:10.73 |    213987    |   228309
       14  | 50:44.10 |  3:25.10 |    228310    |   243694
       15  | 54:09.20 |  3:53.57 |    243695    |   261226
       16  | 58:03.02 |  3:58.10 |    261227    |   279086
Range status and errors
Selected range
     Filename C:\Mysterons [Skull_of_Sheeps]\D.A.F. [1988] D.A.F. - untitled (Virgin, CDV2533)\D.A.F. - D.A.F. - untitled (Virgin, CDV2533).wav
     Peak level 79.4 %
     Extraction speed 1.7 X
     Range quality 100.0 %
     Test CRC 67210E2C
     Copy CRC 67210E2C
     Copy OK
No errors occurred
AccurateRip summary
Track  1  accurately ripped (confidence 2)  [3D2BC0BA]  (AR v2)
Track  2  accurately ripped (confidence 2)  [918AF06D]  (AR v2)
Track  3  accurately ripped (confidence 2)  [9223BA4E]  (AR v2)
Track  4  accurately ripped (confidence 2)  [C8812AEA]  (AR v2)
Track  5  accurately ripped (confidence 2)  [D580E416]  (AR v2)
Track  6  accurately ripped (confidence 2)  [D47995EE]  (AR v2)
Track  7  accurately ripped (confidence 2)  [FDB0C903]  (AR v2)
Track  8  accurately ripped (confidence 2)  [98107EB8]  (AR v2)
Track  9  accurately ripped (confidence 2)  [4794EE68]  (AR v2)
Track 10  accurately ripped (confidence 2)  [2612CF51]  (AR v2)
Track 11  accurately ripped (confidence 2)  [99BEC45F]  (AR v2)
Track 12  accurately ripped (confidence 2)  [43A5A235]  (AR v2)
Track 13  accurately ripped (confidence 2)  [C9ADBC2D]  (AR v2)
Track 14  accurately ripped (confidence 2)  [2DC5A9D0]  (AR v2)
Track 15  accurately ripped (confidence 2)  [4FA66A3C]  (AR v2)
Track 16  accurately ripped (confidence 2)  [60C8BBED]  (AR v2)
All tracks accurately ripped
End of status report
---- CUETools DB Plugin V2.1.3
[CTDB TOCID: SenfyZUebXtE2yi8PxZk2.ucKdU-] found, Submit result: SenfyZUebXtE2yi8PxZk2.ucKdU- has been confirmed
[3400995a] (3/3) Accurately ripped
==== Log checksum 4B568FBBBC33493EC17D9592CEC5C9EA73D12997C8870CBC5073A6CE6AEE1F8A ====
Код:
[CUETools log; Date: 27.05.2012 15:19:45; Version: 2.1.4]
[CTDB TOCID: SenfyZUebXtE2yi8PxZk2.ucKdU-] found.
Track | CTDB Status
  1   | (4/4) Accurately ripped
  2   | (4/4) Accurately ripped
  3   | (4/4) Accurately ripped
  4   | (4/4) Accurately ripped
  5   | (4/4) Accurately ripped
  6   | (4/4) Accurately ripped
  7   | (4/4) Accurately ripped
  8   | (4/4) Accurately ripped
  9   | (4/4) Accurately ripped
 10   | (4/4) Accurately ripped
 11   | (4/4) Accurately ripped
 12   | (4/4) Accurately ripped
 13   | (4/4) Accurately ripped
 14   | (4/4) Accurately ripped
 15   | (4/4) Accurately ripped
 16   | (4/4) Accurately ripped
[AccurateRip ID: 00244655-01b3f70d-d20e8910] found.
Track   [  CRC   |   V2   ] Status
 01     [6411c1c4|3d2bc0ba] (19+02/21) Accurately ripped
 02     [cc887404|918af06d] (18+02/20) Accurately ripped
 03     [a8ce8b38|9223ba4e] (16+02/18) Accurately ripped
 04     [5d22a9bd|c8812aea] (18+02/20) Accurately ripped
 05     [17f057d6|d580e416] (17+02/19) Accurately ripped
 06     [19a698a3|d47995ee] (17+02/19) Accurately ripped
 07     [1595618c|fdb0c903] (17+02/19) Accurately ripped
 08     [ad18940f|98107eb8] (18+02/20) Accurately ripped
 09     [006fac9e|4794ee68] (17+02/19) Accurately ripped
 10     [55567ad5|2612cf51] (17+02/19) Accurately ripped
 11     [fe57fe78|99bec45f] (18+02/20) Accurately ripped
 12     [5cbb4b0a|43a5a235] (17+02/19) Accurately ripped
 13     [2fa8a070|c9adbc2d] (17+02/19) Accurately ripped
 14     [15703f95|2dc5a9d0] (16+02/18) Accurately ripped
 15     [17668577|4fa66a3c] (17+02/19) Accurately ripped
 16     [00c76416|60c8bbed] (16+02/20) Accurately ripped
Offsetted by 6:
 01     [e990d894] (00/21) No match
 02     [fdd3e1a0] (00/20) No match
 03     [f8292661] (00/18) No match
 04     [72ce70b3] (00/20) No match
 05     [16abc0c9] (00/19) No match
 06     [5feff494] (00/19) No match
 07     [20d95046] (00/19) No match
 08     [7a7b7496] (00/20) No match
 09     [3436d2cf] (00/19) No match
 10     [0f076aac] (00/19) No match
 11     [457d8f69] (00/20) No match
 12     [c2ba6bf2] (00/19) No match
 13     [2242693b] (00/19) No match
 14     [ec9e6f02] (00/18) No match
 15     [6e0d6040] (00/19) No match
 16     [7d0f6fe4] (02/20) Accurately ripped
Track Peak [ CRC32  ] [W/O NULL] [  LOG   ]
 --   79,4 [67210E2C] [1C588F4E]   CRC32
 01   70,9 [681448C3] [A31F11A5]
 02   54,0 [3E9E1036] [1DAAAB85]
 03   69,1 [F2D43D26] [1FEE3FDF]
 04   60,6 [9ADF96BE] [E79CCE0A]
 05   74,7 [C029EA24] [BDEC1781]
 06   66,5 [04A2AA8E] [EECA16D2]
 07   58,2 [472D7707] [DEECF3FF]
 08   61,3 [A1412001] [458EACFF]
 09   53,7 [763923F9] [44C1036D]
 10   52,5 [3D35511C] [0E5C0919]
 11   66,7 [7879E9A9] [05FF20D0]
 12   58,7 [09ED7F3B] [20F477FC]
 13   51,7 [FF532535] [FD847589]
 14   79,4 [9F167731] [C3F70C6C]
 15   63,5 [679EF4A1] [EF112EF1]
 16   67,4 [437505C5] [52531D71]
Код:
AUDIOCHECKER v2.0 beta (build 457) - by Dester - opdester@freemail.hu
~~~~~~~~~~~~~~~~~~~~~~~~~~~~~~~~~~
-=== DO NOT EDIT THIS FILE! ===-
Path: ...\D.A.F. [1988] D.A.F. - untitled (Virgin, CDV2533)
1 -=- D.A.F. - D.A.F. - untitled (Virgin, CDV2533).flac -=- CDDA (100%)
18735876
Прошу обратить внимание на то, что весь материал, представленный выше, предназначен исключительно для ознакомления!
Приобретайте, пожалуйста, легальные диски, которые вне всякого сомнения станут достойным украшением вашей коллекции!

Правила, инструкции, FAQ!!!
Торрент  Добавлен [26 июн 2020, 17:57] Скачать торрент Магнет ссылка
Скачать торрент
[ Размер 17.42 КБ / Просмотров 9 ]

Статус
Проверен 
 
Размер  409.28 МБ
Приватный: Нет (DHT включён)
.torrent скачан  0
 


     Отправить личное сообщение
   
Страница 1 из 1
Показать сообщения за:  Поле сортировки  
Начать новую тему Ответить на тему


Сейчас этот форум просматривают: нет зарегистрированных пользователей и гости: 0


Вы не можете начинать темы
Вы не можете отвечать на сообщения
Вы не можете редактировать свои сообщения
Вы не можете удалять свои сообщения
Вы не можете добавлять вложения

Перейти:  
cron