Начать новую тему Ответить на тему
Статистика раздачи
Размер: 247.51 МБ | Добавлен: 26 июн 2020, 20:10 | Скачали: 0
Сидеров: 0  [0 байт/сек]    Личеров: 0  [0 байт/сек]
Пред. тема | След. тема 

Автор
Сообщение

СообщениеДобавлено: 26 июн 2020, 20:10 

Ответить с цитатой 

Deutsch Amerikanische Freundschaft / Gold Und Liebe (Reissue)
Жанр: Electronic, EBM
Страна-производитель диска: Europe Union
Год записи альбома: 1981
Год издания диска: 1998
Издатель (лейбл): The Grey Area of Mute
Номер по каталогу: DAF2CD, 5016025682263
Matrix number: 2100002989148 2568226
Страна: Deutschland
Аудиокодек: FLAC (*.flac)
Тип рипа: image+.cue (log&cue embedded)
Битрейт аудио: lossless
Продолжительность: 35:45
Источник (релизер): Личная коллекция
Наличие сканов в содержимом раздачи: да (combined 300 & 600 dpi)
Треклист:
01. [3:59] Liebe auf den ersten Blick
02. [3:33] El Que
03. [3:04] Sex unter Wasser
04. [3:47] Was ziehst Du an heute Nacht
05. [3:57] Goldenes Spielzeug
06. [3:20] Ich will
07. [3:23] Muskel
08. [3:13] Absolute Körperkontrolle
09. [3:49] Verschwende deine Jugend
10. [3:41] Greif nach den Sternen
Код:
Exact Audio Copy V1.0 beta 3 from 29. August 2011
EAC extraction logfile from 26. May 2012, 19:08
Deutsch Amerikanische Freundschaft / Gold Und Liebe (The Grey Area of Mute, DAF2CD)
Used drive  : ASUS    DRW-24B1ST   Adapter: 3  ID: 0
Read mode               : Secure
Utilize accurate stream : Yes
Defeat audio cache      : Yes
Make use of C2 pointers : No
Read offset correction                      : 6
Overread into Lead-In and Lead-Out          : No
Fill up missing offset samples with silence : Yes
Delete leading and trailing silent blocks   : No
Null samples used in CRC calculations       : Yes
Used interface                              : Native Win32 interface for Win NT & 2000
Used output format              : User Defined Encoder
Selected bitrate                : 1024 kBit/s
Quality                         : High
Add ID3 tag                     : No
Command line compressor         : C:\Program Files\FLAC\flac.exe
Additional command line options : -8 -V %source% -o %dest%
TOC of the extracted CD
     Track |   Start  |  Length  | Start sector | End sector
    ---------------------------------------------------------
        1  |  0:00.00 |  3:58.60 |         0    |    17909
        2  |  3:58.60 |  3:33.05 |     17910    |    33889
        3  |  7:31.65 |  3:04.26 |     33890    |    47715
        4  | 10:36.16 |  3:46.42 |     47716    |    64707
        5  | 14:22.58 |  3:57.08 |     64708    |    82490
        6  | 18:19.66 |  3:19.66 |     82491    |    97481
        7  | 21:39.57 |  3:23.28 |     97482    |   112734
        8  | 25:03.10 |  3:12.52 |    112735    |   127186
        9  | 28:15.62 |  3:48.56 |    127187    |   144342
       10  | 32:04.43 |  3:41.13 |    144343    |   160930
Range status and errors
Selected range
     Filename C:\Mysterons [Skull_of_Sheeps]\D.A.F. [1981] Gold Und Liebe (The Grey Area of Mute, DAF2CD)\D.A.F. - Gold Und Liebe (The Grey Area of Mute, DAF2CD).wav
     Peak level 100.0 %
     Extraction speed 7.2 X
     Range quality 100.0 %
     Test CRC 54576616
     Copy CRC 54576616
     Copy OK
No errors occurred
AccurateRip summary
Track  1  cannot be verified as accurate (confidence 6)  [AA827A6C], AccurateRip returned [E7892BE7]  (AR v2)
Track  2  cannot be verified as accurate (confidence 8)  [9BBF3A85], AccurateRip returned [5E4CC973]  (AR v2)
Track  3  cannot be verified as accurate (confidence 8)  [EB4F3A6E], AccurateRip returned [0DEDD320]  (AR v2)
Track  4  cannot be verified as accurate (confidence 7)  [79E3598E], AccurateRip returned [E009B15C]  (AR v2)
Track  5  cannot be verified as accurate (confidence 8)  [11761440], AccurateRip returned [11E99A34]  (AR v2)
Track  6  cannot be verified as accurate (confidence 8)  [4952530D], AccurateRip returned [0B9F58CD]  (AR v2)
Track  7  cannot be verified as accurate (confidence 8)  [F39CC52D], AccurateRip returned [BCF1D577]  (AR v2)
Track  8  cannot be verified as accurate (confidence 7)  [2F4610B8], AccurateRip returned [9B4513EF]  (AR v2)
Track  9  cannot be verified as accurate (confidence 8)  [8968468F], AccurateRip returned [3DE52612]  (AR v2)
Track 10  cannot be verified as accurate (confidence 8)  [82836CCE], AccurateRip returned [1972B8F7]  (AR v2)
No tracks could be verified as accurate
You may have a different pressing from the one(s) in the database
End of status report
---- CUETools DB Plugin V2.1.3
[CTDB TOCID: KBKfaK1_Lz_9cV1vYIl.kO8pzoo-] found, Submit result: KBKfaK1_Lz_9cV1vYIl.kO8pzoo- has been confirmed
[4c063212] (7/7) Accurately ripped
==== Log checksum 881C7C4FB61280333F3380D22AF27D5E2DB58DCC449E17DDC8B4C735A1364443 ====
Код:
[CUETools log; Date: 26.05.2012 19:10:52; Version: 2.1.4]
[CTDB TOCID: KBKfaK1_Lz_9cV1vYIl.kO8pzoo-] found.
Track | CTDB Status
  1   | (3/3) Accurately ripped
  2   | (3/3) Accurately ripped
  3   | (3/3) Accurately ripped
  4   | (3/3) Accurately ripped
  5   | (3/3) Accurately ripped
  6   | (3/3) Accurately ripped
  7   | (3/3) Accurately ripped
  8   | (3/3) Accurately ripped
  9   | (3/3) Accurately ripped
 10   | (3/3) Accurately ripped
[AccurateRip ID: 000d9231-006c2d29-7308610a] found.
Track   [  CRC   |   V2   ] Status
 01     [8ba6e043|aa827a6c] (0+0/6) No match
 02     [5186e627|9bbf3a85] (0+0/8) No match
 03     [430fb9c4|eb4f3a6e] (0+0/8) No match
 04     [29a89460|79e3598e] (0+0/7) No match
 05     [0bd337ec|11761440] (0+0/8) No match
 06     [2fab9011|4952530d] (0+0/8) No match
 07     [51973da8|f39cc52d] (0+0/8) No match
 08     [e4ffd332|2f4610b8] (0+0/7) No match
 09     [7b6d8052|8968468f] (0+0/8) No match
 10     [1f2d3d8f|82836cce] (0+0/8) No match
Offsetted by 36:
 01     [e7892be7] (6/6) Accurately ripped
 02     [5e4cc973] (8/8) Accurately ripped
 03     [0dedd320] (8/8) Accurately ripped
 04     [e009b15c] (7/7) Accurately ripped
 05     [11e99a34] (8/8) Accurately ripped
 06     [0b9f58cd] (8/8) Accurately ripped
 07     [bcf1d577] (8/8) Accurately ripped
 08     [9b4513ef] (7/7) Accurately ripped
 09     [3de52612] (8/8) Accurately ripped
 10     [1972b8f7] (8/8) Accurately ripped
Track Peak [ CRC32  ] [W/O NULL] [  LOG   ]
 --  100,0 [54576616] [8690CD61]   CRC32
 01  100,0 [4B13D022] [6240F58F]
 02  100,0 [3C67A2E1] [FD1A690F]
 03  100,0 [F7EC18F3] [8564B0D8]
 04  100,0 [352E76D3] [30D787BD]
 05  100,0 [97BA490D] [0A9EF021]
 06  100,0 [0253861B] [494D218E]
 07  100,0 [ABB501FC] [E4E948BA]
 08  100,0 [B9F69DE7] [DAFA9433]
 09  100,0 [B93E09C9] [59C417FA]
 10  100,0 [A8081670] [91E143D1]
Код:
AUDIOCHECKER v2.0 beta (build 457) - by Dester - opdester@freemail.hu
~~~~~~~~~~~~~~~~~~~~~~~~~~~~~~~~~~
-=== DO NOT EDIT THIS FILE! ===-
Path: ...\D.A.F. [1981] Gold Und Liebe (The Grey Area of Mute, DAF2CD)
1 -=- D.A.F. - Gold Und Liebe (The Grey Area of Mute, DAF2CD).flac -=- CDDA (100%)
187231476
Прошу обратить внимание на то, что весь материал, представленный выше, предназначен исключительно для ознакомления!
Приобретайте, пожалуйста, легальные диски, которые вне всякого сомнения станут достойным украшением вашей коллекции!

Правила, инструкции, FAQ!!!
Торрент  Добавлен [26 июн 2020, 20:10] Скачать торрент Магнет ссылка
Скачать торрент
[ Размер 20.76 КБ / Просмотров 10 ]

Статус
Проверен 
 
Размер  247.51 МБ
Приватный: Нет (DHT включён)
.torrent скачан  0
 


     Отправить личное сообщение
   
Страница 1 из 1
Показать сообщения за:  Поле сортировки  
Начать новую тему Ответить на тему


Сейчас этот форум просматривают: нет зарегистрированных пользователей и гости: 0


Вы не можете начинать темы
Вы не можете отвечать на сообщения
Вы не можете редактировать свои сообщения
Вы не можете удалять свои сообщения
Вы не можете добавлять вложения

Перейти:  
cron