Начать новую тему Ответить на тему
Статистика раздачи
Размер: 227.54 МБ | Добавлен: 26 июн 2020, 21:12 | Скачали: 0
Сидеров: 0  [0 байт/сек]    Личеров: 0  [0 байт/сек]
Пред. тема | След. тема 

Автор
Сообщение

СообщениеДобавлено: 26 июн 2020, 21:12 

Ответить с цитатой 

Deutsch Amerikanische Freundschaft / Alles Ist Gut (Original edition, 1st press)
Жанр: Electronic, EBM
Страна-производитель диска: West Germany
Год записи альбома: 1981
Год издания диска: 1992
Издатель (лейбл): Virgin Records Ltd. & Conny's Studio GmbH
Номер по каталогу: CDV 220
Matrix number: SONOPRESS C-7295/CDV2202 A
Страна: Deutschland
Аудиокодек: FLAC (*.flac)
Тип рипа: image+.cue (log&cue embedded)
Битрейт аудио: lossless
Продолжительность: 34:49
Источник (релизер): Личная коллекция
Наличие сканов в содержимом раздачи: да (combined 300 & 600 dpi)
Треклист:
01. [2:50] Sato-Sato
02. [3:55] Der Mussolini
03. [2:44] Rote Lippen
04. [4:30] Mein Herz Macht Bum
05. [3:30] Der Rauber Und Der Prinz
06. [3:08] Ich Und Die Wirklichkeit
07. [3:29] Als War's Das Letze Mal
08. [3:19] Verlier Nicht Den Kopf
09. [3:58] Alle Gegen Alle
10. [3:28] Alles Ist Gut
Код:
Exact Audio Copy V1.0 beta 3 from 29. August 2011
EAC extraction logfile from 27. May 2012, 1:24
Deutsch Amerikanische Freundschaft / Alles Ist Gut (Virgin Records Ltd. & Conny's Studio GmbH, CDV 2202)
Used drive  : ASUS    DRW-24B1ST   Adapter: 3  ID: 0
Read mode               : Secure
Utilize accurate stream : Yes
Defeat audio cache      : Yes
Make use of C2 pointers : No
Read offset correction                      : 6
Overread into Lead-In and Lead-Out          : No
Fill up missing offset samples with silence : Yes
Delete leading and trailing silent blocks   : No
Null samples used in CRC calculations       : Yes
Used interface                              : Native Win32 interface for Win NT & 2000
Used output format              : User Defined Encoder
Selected bitrate                : 1024 kBit/s
Quality                         : High
Add ID3 tag                     : No
Command line compressor         : C:\Program Files\FLAC\flac.exe
Additional command line options : -8 -V %source% -o %dest%
TOC of the extracted CD
     Track |   Start  |  Length  | Start sector | End sector
    ---------------------------------------------------------
        1  |  0:00.00 |  2:49.60 |         0    |    12734
        2  |  2:49.60 |  3:54.57 |     12735    |    30341
        3  |  6:44.42 |  2:43.40 |     30342    |    42606
        4  |  9:28.07 |  4:29.38 |     42607    |    62819
        5  | 13:57.45 |  3:29.57 |     62820    |    78551
        6  | 17:27.27 |  3:07.43 |     78552    |    92619
        7  | 20:34.70 |  3:28.42 |     92620    |   108261
        8  | 24:03.37 |  3:19.03 |    108262    |   123189
        9  | 27:22.40 |  3:58.10 |    123190    |   141049
       10  | 31:20.50 |  3:28.25 |    141050    |   156674
Range status and errors
Selected range
     Filename C:\Mysterons [Skull_of_Sheeps]\D.A.F. [1981] Alles Ist Gut (Virgin Records Ltd. & Conny's Studio GmbH, CDV 2202)\D.A.F. - Alles Ist Gut (Virgin Records Ltd. & Conny's Studio GmbH, CDV 2202).wav
     Peak level 100.0 %
     Extraction speed 7.3 X
     Range quality 100.0 %
     Test CRC 5010B382
     Copy CRC 5010B382
     Copy OK
No errors occurred
AccurateRip summary
Track  1  accurately ripped (confidence 10)  [454D7EC9]  (AR v1)
Track  2  accurately ripped (confidence 10)  [050B2989]  (AR v1)
Track  3  accurately ripped (confidence 10)  [1F56D56E]  (AR v1)
Track  4  accurately ripped (confidence 10)  [EE7E6473]  (AR v1)
Track  5  accurately ripped (confidence 10)  [D96E629D]  (AR v1)
Track  6  accurately ripped (confidence 10)  [0B9361B2]  (AR v1)
Track  7  accurately ripped (confidence 10)  [9D2D9EE4]  (AR v1)
Track  8  accurately ripped (confidence 10)  [17051582]  (AR v1)
Track  9  accurately ripped (confidence 10)  [393D3482]  (AR v1)
Track 10  accurately ripped (confidence 10)  [AB1CEED1]  (AR v1)
All tracks accurately ripped
End of status report
---- CUETools DB Plugin V2.1.3
[CTDB TOCID: r52cDjgN6m6_Wl6E6Bui12EeiOg-] found, Submit result: r52cDjgN6m6_Wl6E6Bui12EeiOg- has been confirmed
[8a496d96] (1/1) Accurately ripped
==== Log checksum 7BC28F072D77D34F387FB5561EB216C221AAC91E7ABA3CD3EFF095D1CC23AD93 ====
Код:
[CUETools log; Date: 27.05.2012 1:28:00; Version: 2.1.4]
[CTDB TOCID: r52cDjgN6m6_Wl6E6Bui12EeiOg-] found.
Track | CTDB Status
  1   | (2/2) Accurately ripped
  2   | (2/2) Accurately ripped
  3   | (2/2) Accurately ripped
  4   | (2/2) Accurately ripped
  5   | (2/2) Accurately ripped
  6   | (2/2) Accurately ripped
  7   | (2/2) Accurately ripped
  8   | (2/2) Accurately ripped
  9   | (2/2) Accurately ripped
 10   | (2/2) Accurately ripped
[AccurateRip ID: 000cf3d5-00683560-7f08290a] found.
Track   [  CRC   |   V2   ] Status
 01     [454d7ec9|525b67ca] (10+00/15) Accurately ripped
 02     [050b2989|2a6ab32c] (10+00/15) Accurately ripped
 03     [1f56d56e|b82de9e1] (10+00/15) Accurately ripped
 04     [ee7e6473|aa0ebd61] (10+00/15) Accurately ripped
 05     [d96e629d|c9f31999] (10+00/15) Accurately ripped
 06     [0b9361b2|246b0a3b] (10+00/15) Accurately ripped
 07     [9d2d9ee4|84b0ca54] (10+00/15) Accurately ripped
 08     [17051582|ee0c7d7b] (10+00/15) Accurately ripped
 09     [393d3482|f4968cb4] (10+00/15) Accurately ripped
 10     [ab1ceed1|3cc7cf13] (10+00/15) Accurately ripped
Offsetted by -1440:
 01     [3f033e78] (03/15) Accurately ripped
 02     [843c4db9] (03/15) Accurately ripped
 03     [6d99cee1] (03/15) Accurately ripped
 04     [152990e1] (03/15) Accurately ripped
 05     [a7a5a067] (03/15) Accurately ripped
 06     [1ab3bab9] (03/15) Accurately ripped
 07     [d9f4e8f2] (03/15) Accurately ripped
 08     [43d2848d] (03/15) Accurately ripped
 09     [8326a902] (03/15) Accurately ripped
 10     [8e4988c3] (03/15) Accurately ripped
Track Peak [ CRC32  ] [W/O NULL] [  LOG   ]
 --  100,0 [5010B382] [0C8FB4C7]   CRC32
 01  100,0 [0E1157BA] [91D8C3F7]
 02  100,0 [3885B9E3] [BEB54D33]
 03   90,5 [66E6C79B] [48265CBA]
 04   99,9 [E709140C] [60CD315C]
 05   94,8 [3FAF8E41] [89D8A925]
 06   89,9 [2A7C7F84] [92116889]
 07  100,0 [17B962AD] [2321133E]
 08   88,8 [ECE81883] [BB6AED96]
 09   94,3 [B2988778] [9206BCD3]
 10   94,0 [A8A2029D] [68F74329]
Код:
AUDIOCHECKER v2.0 beta (build 457) - by Dester - opdester@freemail.hu
~~~~~~~~~~~~~~~~~~~~~~~~~~~~~~~~~~
-=== DO NOT EDIT THIS FILE! ===-
Path: ...\D.A.F. [1981] Alles Ist Gut (Virgin Records Ltd. & Conny's Studio GmbH, CDV 2202)
1 -=- D.A.F. - Alles Ist Gut (Virgin Records Ltd. & Conny's Studio GmbH, CDV 2202).flac -=- CDDA (100%)
51072500
Прошу обратить внимание на то, что весь материал, представленный выше, предназначен исключительно для ознакомления!
Приобретайте, пожалуйста, легальные диски, которые вне всякого сомнения станут достойным украшением вашей коллекции!

Правила, инструкции, FAQ!!!
Торрент  Добавлен [26 июн 2020, 21:12] Скачать торрент Магнет ссылка
Скачать торрент
[ Размер 19.26 КБ / Просмотров 10 ]

Статус
Проверен 
 
Размер  227.54 МБ
Приватный: Нет (DHT включён)
.torrent скачан  0
 


     Отправить личное сообщение
   
Страница 1 из 1
Показать сообщения за:  Поле сортировки  
Начать новую тему Ответить на тему


Сейчас этот форум просматривают: нет зарегистрированных пользователей и гости: 0


Вы не можете начинать темы
Вы не можете отвечать на сообщения
Вы не можете редактировать свои сообщения
Вы не можете удалять свои сообщения
Вы не можете добавлять вложения

Перейти:  
cron