Начать новую тему Ответить на тему
Статистика раздачи
Размер: 238.61 МБ | Добавлен: 26 июн 2020, 17:30 | Скачали: 0
Сидеров: 0  [0 байт/сек]    Личеров: 0  [0 байт/сек]
Пред. тема | След. тема 

Автор
Сообщение

СообщениеДобавлено: 26 июн 2020, 17:30 

Ответить с цитатой 

Covenant - Lightbringer (EP)

Feat. Necro Facility

Жанр: Electronic | Страна-производитель диска: US | Год издания диска: 2010
Издатель (лейбл): SPV | Номер по каталогу: 308363 | Страна: Sweden
Аудио кодек: FLAC (*.flac) | Тип рипа: tracks+.cue | Битрейт аудио: lossless | Продолжительность: 00:36:54
Релизер (источник): eagl27 (What.CD)
01. Lightbringer
02. Lightbringer (Radio Version)
03. Lightbringer (DM Remix)
04. The Beauty And The Grace (RMX)
05. Lightbringer (Speedrun)
06. Lightbringer (JM Remix)
07. Never Seem To End


Код:
Exact Audio Copy V0.99 prebeta 5 from 4. May 2009
EAC extraction logfile from 16. February 2011, 22:32
Covenant Feat. Necro Facility / Lightbringer EP
Used drive  : TSSTcorpCDW/DVD TS-L462C   Adapter: 1  ID: 0
Read mode               : Secure
Utilize accurate stream : Yes
Defeat audio cache      : Yes
Make use of C2 pointers : No
Read offset correction                      : 6
Overread into Lead-In and Lead-Out          : No
Fill up missing offset samples with silence : Yes
Delete leading and trailing silent blocks   : No
Null samples used in CRC calculations       : Yes
Used interface                              : Native Win32 interface for Win NT & 2000
Gap handling                                : Appended to previous track
Used output format              : User Defined Encoder
Selected bitrate                : 768 kBit/s
Quality                         : High
Add ID3 tag                     : No
Command line compressor         : C:\Program Files\Exact Audio Copy\FLAC\FLAC.EXE
Additional command line options : -V -8 -T "artist=%a" -T "title=%t" -T "album=%g" -T "date=%y" -T "tracknumber=%n" -T "genre=%m" %s
TOC of the extracted CD
     Track |   Start  |  Length  | Start sector | End sector
    ---------------------------------------------------------
        1  |  0:00.00 |  5:43.47 |         0    |    25771
        2  |  5:43.47 |  4:17.63 |     25772    |    45109
        3  | 10:01.35 |  4:17.51 |     45110    |    64435
        4  | 14:19.11 |  4:55.15 |     64436    |    86575
        5  | 19:14.26 |  4:28.41 |     86576    |   106716
        6  | 23:42.67 |  6:37.60 |    106717    |   136551
        7  | 30:20.52 |  6:34.20 |    136552    |   166121
Track  1
     Filename C:\EAC Rips\Covenant Feat. Necro Facility - 2010 - Lightbringer EP [FLAC]\01 - Lightbringer.wav
     Pre-gap length  0:00:02.00
     Peak level 100.0 %
     Track quality 100.0 %
     Test CRC 54720E63
     Copy CRC 54720E63
     Accurately ripped (confidence 3)  [DB06F010]
     Copy OK
Track  2
     Filename C:\EAC Rips\Covenant Feat. Necro Facility - 2010 - Lightbringer EP [FLAC]\02 - Lightbringer (Radio Version).wav
     Peak level 100.0 %
     Track quality 100.0 %
     Test CRC C2A23CC6
     Copy CRC C2A23CC6
     Accurately ripped (confidence 3)  [735E03EB]
     Copy OK
Track  3
     Filename C:\EAC Rips\Covenant Feat. Necro Facility - 2010 - Lightbringer EP [FLAC]\03 - Lightbringer (DM Remix).wav
     Peak level 100.0 %
     Track quality 99.9 %
     Test CRC E20877BB
     Copy CRC E20877BB
     Accurately ripped (confidence 3)  [271C2326]
     Copy OK
Track  4
     Filename C:\EAC Rips\Covenant Feat. Necro Facility - 2010 - Lightbringer EP [FLAC]\04 - The Beauty And The Grace (RMX).wav
     Peak level 100.0 %
     Track quality 99.9 %
     Test CRC 792E171D
     Copy CRC 792E171D
     Accurately ripped (confidence 3)  [C97FE374]
     Copy OK
Track  5
     Filename C:\EAC Rips\Covenant Feat. Necro Facility - 2010 - Lightbringer EP [FLAC]\05 - Lightbringer (Speedrun).wav
     Peak level 100.0 %
     Track quality 100.0 %
     Test CRC 87A318BB
     Copy CRC 87A318BB
     Accurately ripped (confidence 3)  [0CBEEEB9]
     Copy OK
Track  6
     Filename C:\EAC Rips\Covenant Feat. Necro Facility - 2010 - Lightbringer EP [FLAC]\06 - Lightbringer (JM Remix).wav
     Peak level 100.0 %
     Track quality 99.9 %
     Test CRC 660A4EA5
     Copy CRC 660A4EA5
     Accurately ripped (confidence 3)  [C0680325]
     Copy OK
Track  7
     Filename C:\EAC Rips\Covenant Feat. Necro Facility - 2010 - Lightbringer EP [FLAC]\07 - Never Seems To End.wav
     Peak level 100.0 %
     Track quality 100.0 %
     Test CRC B30F15E8
     Copy CRC B30F15E8
     Accurately ripped (confidence 3)  [755631FB]
     Copy OK
All tracks accurately ripped
No errors occurred
End of status report
Код:
REM GENRE Industrial
REM DATE 2010
REM DISCID 4B08A607
REM COMMENT "ExactAudioCopy v0.99pb5"
PERFORMER "Covenant"
TITLE "Lightbringer [EP] [Feat. Necro Facility]"
FILE "01 - Lightbringer.wav" WAVE
  TRACK 01 AUDIO
    TITLE "Lightbringer"
    PERFORMER "Covenant"
    INDEX 01 00:00:00
FILE "02 - Lightbringer (Radio Version).wav" WAVE
  TRACK 02 AUDIO
    TITLE "Lightbringer (Radio Version)"
    PERFORMER "Covenant"
    INDEX 01 00:00:00
FILE "03 - Lightbringer (DM Remix).wav" WAVE
  TRACK 03 AUDIO
    TITLE "Lightbringer (DM Remix)"
    PERFORMER "Covenant"
    INDEX 01 00:00:00
FILE "04 - The Beauty And The Grace (RMX).wav" WAVE
  TRACK 04 AUDIO
    TITLE "The Beauty And The Grace (RMX)"
    PERFORMER "Covenant"
    INDEX 01 00:00:00
FILE "05 - Lightbringer (Speedrun).wav" WAVE
  TRACK 05 AUDIO
    TITLE "Lightbringer (Speedrun)"
    PERFORMER "Covenant"
    INDEX 01 00:00:00
FILE "06 - Lightbringer (JM Remix).wav" WAVE
  TRACK 06 AUDIO
    TITLE "Lightbringer (JM Remix)"
    PERFORMER "Covenant"
    INDEX 01 00:00:00
FILE "07 - Never Seems To End.wav" WAVE
  TRACK 07 AUDIO
    TITLE "Never Seems To End"
    PERFORMER "Covenant"
    INDEX 01 00:00:00

Правила, инструкции, FAQ!!!
Торрент  Добавлен [26 июн 2020, 17:30] Скачать торрент Магнет ссылка
Скачать торрент
[ Размер 19.79 КБ / Просмотров 10 ]

Статус
Проверен 
 
Размер  238.61 МБ
Приватный: Нет (DHT включён)
.torrent скачан  0
 


     Отправить личное сообщение
   
Страница 1 из 1
Показать сообщения за:  Поле сортировки  
Начать новую тему Ответить на тему


Сейчас этот форум просматривают: нет зарегистрированных пользователей и гости: 0


Вы не можете начинать темы
Вы не можете отвечать на сообщения
Вы не можете редактировать свои сообщения
Вы не можете удалять свои сообщения
Вы не можете добавлять вложения

Перейти:  
cron