Начать новую тему Ответить на тему
Статистика раздачи
Размер: 1.16 ГБ | Добавлен: 26 июн 2020, 20:23 | Скачали: 0
Сидеров: 0  [0 байт/сек]    Личеров: 0  [0 байт/сек]
Пред. тема | След. тема 

Автор
Сообщение

СообщениеДобавлено: 26 июн 2020, 20:23 

Ответить с цитатой 

leæther strip : untold stories + cd-rom number one
#777Жанр: Electro
Год издания диска: 2011
Издатель (лейбл): Leæther Strip Self-released
Страна: Denmark
Аудиокодек: FLAC (*.flac)
Тип рипа: image+.cue
Битрейт аудио: lossless
Продолжительность: 76:09+78:34
Источник (релизер): Собственные диски
Наличие сканов в содержимом раздачи: нет
Треклист:
Untold Stories
1-1 Reunited With My Bitterness 6:14
1-2 Listen To The Children Pray 4:58
1-3 Blind Mans Bluff 6:28
1-4 Untold Stories 5:27
1-5 True Glory - False Heroes 5:31
1-6 Ever Changing Landscapes 4:12
1-7 Love Is Dead 5:30
1-8 Connubialis 5:52
1-9 Giants 5:41
1-10 I Feel No Shame 5:48
1-11 Silver Mist 5:13
1-12 I Am Him - He Is Me 5:09
1-13 The Queen Of The Dusk 5:11
1-14 For The Ones We Lost 4:48
CD-Rom Number One
2-1 Hate Me 2011 5:39
2-2 Budapæst Noir 4:06
2-3 Unerzählte Geschichten ( Featuring – Rummelsnuff ) 4:39
2-4 Vollnarkose ( Featuring – Rummelsnuff ) 4:54
2-5 Reunited With My Bitterness (Club Mix By Psychopomps) 6:07
2-6 The End Of The Road (Final Words Mix By Front Line Assembly) 6:03
2-7 Reunited With My Bitterness (Ehron VonAllen Mix) 6:42
2-8 Reunited With My Bitterness (Endless Dark Mix By Why The Misery) 5:38
2-9 Listen To The Children Pray (Gospel Mix By Implant) 4:49
2-10 Reunited With My Bitterness (Nu Retro Remix By Implant) 4:13
2-11 Listen To The Children Pray (Autodafeh Remix) 4:49
2-12 Listen To The Children Pray (Bitch Slap Mix By Decoded Feedback) 4:56
2-13 Listen To The Children Pray (Robotiko Rejekto Remix) 5:10
2-14 Reunited With My Bitterness (Deadboy Mix By Decoded Feedback) (Bonus Track In MP3 Format) 4:56
2-15 Reunited With My Bitterness (UCNX Remix) (Bonus Track In MP3 Format) 5:47
Sold only through Claus Larsen and at concerts.
First 1000 copies will be a limited edition handnumbered Digipak CD with also a CD-ROM filled with new remixes and collaborations in Wav format.
Claus Larsen’s statement on the album:
"This album has been in my head for many years, and after completing the somewhat aggressive Klutæ album “Electro Punks unite”, I really felt it was time to dig for my roots and to really embrace my melancholic and melodic side more than I have done over the years. The Songs have a very retro electronic sound that most of my listeners knows I love, and on most of the songs you will hear me actually sing like the good boy I also have deep inside. It was a hard job to dig him out.
I have also decided to make this album a fully self-released album. I love and need the direct contact with the listeners and sure I know I will not have a big distributor behind me but to have this contact is more important for me than sales, yes it sounds cheesy , but that’s how I feel.
I’m so excited about this album and I hope you will like my little trip down the dark road of melancholy."
Код:
Exact Audio Copy V0.99 prebeta 5 from 4. May 2009
Отчёт EAC об извлечении, выполненном 2. ноября 2011, 17:00
Leaether Strip / Untold Stories
Дисковод: HL-DT-STDVDRAM GT10N   Adapter: 3  ID: 0
Режим чтения                 : Достоверность
Использование точного потока : Да
Отключение кэша аудио        : Да
Использование указателей C2  : Нет
Коррекция смещения при чтении                     : 102
Способность читать области Lead-in и Lead-out     : Нет
Заполнение пропущенных сэмплов тишиной            : Да
Удаление блоков с тишиной в начале и конце        : Нет
При вычислениях CRC использовались нулевые сэмплы : Да
Интерфейс                                         : Встроенный Win32-интерфейс для Win NT/2000
Выходной формат          : Пользовательский кодировщик
Выбранный битрейт        : 1024 kBit/s
Качество                 : Высокий
Добавление ID3-тэга      : Нет
Утилита сжатия           : C:\Program Files\Exact Audio Copy\Flac\flac.exe
Дополнительные параметры : -8 -V %s
TOC извлечённого CD
     Трек |   Старт  | Длительность | Начальный сектор | Конечный сектор
    ---------------------------------------------------------------------
       1  |  0:00.00 |    6:14.02   |           0      |      28051
       2  |  6:14.02 |    4:58.44   |       28052      |      50445
       3  | 11:12.46 |    6:28.36   |       50446      |      79581
       4  | 17:41.07 |    5:27.74   |       79582      |     104180
       5  | 23:09.06 |    5:31.69   |      104181      |     129074
       6  | 28:41.00 |    4:12.31   |      129075      |     148005
       7  | 32:53.31 |    5:30.60   |      148006      |     172815
       8  | 38:24.16 |    5:52.40   |      172816      |     199255
       9  | 44:16.56 |    5:41.36   |      199256      |     224866
      10  | 49:58.17 |    5:48.61   |      224867      |     251027
      11  | 55:47.03 |    5:13.46   |      251028      |     274548
      12  | 61:00.49 |    5:09.05   |      274549      |     297728
      13  | 66:09.54 |    5:11.22   |      297729      |     321075
      14  | 71:21.01 |    4:48.23   |      321076      |     342698
Характеристики диапазона извлечения и сообщения об ошибках
Выбранный диапазон
     Имя файла C:\Program Files\Exact Audio Copy\Flac\Leaether Strip – Untold Stories.wav
     Пиковый уровень 100.0 %
     Качество диапазона 99.9 %
     CRC теста 14AF0BCA
     CRC копии 14AF0BCA
     Копирование... OK
Ошибок не произошло
AccurateRip: сводка
Трек  1  нет в базе данных
Трек  2  нет в базе данных
Трек  3  нет в базе данных
Трек  4  нет в базе данных
Трек  5  нет в базе данных
Трек  6  нет в базе данных
Трек  7  нет в базе данных
Трек  8  нет в базе данных
Трек  9  нет в базе данных
Трек 10  нет в базе данных
Трек 11  нет в базе данных
Трек 12  нет в базе данных
Трек 13  нет в базе данных
Трек 14  нет в базе данных
Ни одного трека нет в базе AccurateRip
Конец отчёта
Правила, инструкции, FAQ!!!
Торрент  Добавлен [26 июн 2020, 20:23] Скачать торрент Магнет ссылка
Скачать торрент
[ Размер 12.56 КБ / Просмотров 8 ]

Статус
Проверен 
 
Размер  1.16 ГБ
Приватный: Нет (DHT включён)
.torrent скачан  0
 


     Отправить личное сообщение
   
Страница 1 из 1
Показать сообщения за:  Поле сортировки  
Начать новую тему Ответить на тему


Сейчас этот форум просматривают: нет зарегистрированных пользователей и гости: 0


Вы не можете начинать темы
Вы не можете отвечать на сообщения
Вы не можете редактировать свои сообщения
Вы не можете удалять свои сообщения
Вы не можете добавлять вложения

Перейти:  
cron