Начать новую тему Ответить на тему
Статистика раздачи
Размер: 430.97 МБ | Добавлен: 26 июн 2020, 17:04 | Скачали: 0
Сидеров: 0  [0 байт/сек]    Личеров: 0  [0 байт/сек]
Пред. тема | След. тема 

Автор
Сообщение

СообщениеДобавлено: 26 июн 2020, 17:04 

Ответить с цитатой 

Autumn Leaves
Жанр: Electro, Synthpop
Носитель: CD
Страна-производитель диска (релиза): Sweden
Год издания: 1992
Издатель (лейбл): Memento Materia
Номер по каталогу: MEMO 003
Аудиокодек: FLAC (*.flac)
Тип рипа: tracks+.cue
Битрейт аудио: lossless
Продолжительность: 01:11:47
Источник (релизер): what.cd, ollat
Наличие сканов в содержимом раздачи: нет
Треклист:
1. Sheweird - Fake
2. Malaise - Resent
3. DeVision - Try to Forget
4. Native Cry - Back to Metropolis
5. The Foundation - Within
6. Plastic Noise Experience - Reduction
7. The Tragic Comedy - Lustrous Christ
8. The Classic Conviction - Build Into Nothing
9. Art Fact - DKW
10. The Wounded Meadow - Goathead
11. Nuova Meccanica - Overwhelmed
12. New Form - Hudvisa
13. Voister Litz - I Dedicate
14. Derrida Dance Corps - Teenage Mutant Bikini Island Kids
15. Alter Ego - Deviate
16. The Covenant - The Replicant
17. Terra Zone - Shambles
Код:
Exact Audio Copy V1.0 beta 1 from 15. November 2010
EAC extraction logfile from 14. March 2011, 17:00
Various / Autumn Leaves
Used drive  : TSSTcorpCDDVDW SE-S084D   Adapter: 1  ID: 0
Read mode               : Secure
Utilize accurate stream : Yes
Defeat audio cache      : Yes
Make use of C2 pointers : No
Read offset correction                      : 6
Overread into Lead-In and Lead-Out          : No
Fill up missing offset samples with silence : Yes
Delete leading and trailing silent blocks   : No
Null samples used in CRC calculations       : Yes
Used interface                              : Native Win32 interface for Win NT & 2000
Gap handling                                : Appended to previous track
Used output format              : User Defined Encoder
Selected bitrate                : 320 kBit/s
Quality                         : High
Add ID3 tag                     : No
Command line compressor         : C:\Program Files (x86)\Exact Audio Copy\Flac\flac.exe
Additional command line options : -V -8 -T "artist=%a" -T "title=%t" -T "album=%g" -T "date=%y" -T "tracknumber=%n" -T "genre=%m" %s
TOC of the extracted CD
     Track |   Start  |  Length  | Start sector | End sector
    ---------------------------------------------------------
        1  |  0:00.00 |  5:10.10 |         0    |    23259
        2  |  5:10.10 |  6:10.35 |     23260    |    51044
        3  | 11:20.45 |  3:30.57 |     51045    |    66851
        4  | 14:51.27 |  4:33.63 |     66852    |    87389
        5  | 19:25.15 |  3:31.60 |     87390    |   103274
        6  | 22:57.00 |  3:51.67 |    103275    |   120666
        7  | 26:48.67 |  3:14.33 |    120667    |   135249
        8  | 30:03.25 |  4:39.27 |    135250    |   156201
        9  | 34:42.52 |  3:37.38 |    156202    |   172514
       10  | 38:20.15 |  3:32.57 |    172515    |   188471
       11  | 41:52.72 |  4:03.28 |    188472    |   206724
       12  | 45:56.25 |  3:24.47 |    206725    |   222071
       13  | 49:20.72 |  4:13.53 |    222072    |   241099
       14  | 53:34.50 |  4:48.07 |    241100    |   262706
       15  | 58:22.57 |  3:50.73 |    262707    |   280029
       16  | 62:13.55 |  4:09.65 |    280030    |   298769
       17  | 66:23.45 |  5:23.37 |    298770    |   323031
Track  1
     Filename D:\anan\0_rip\Various - Autumn Leaves [FLAC]\01 - Fake.wav
     Pre-gap length  0:00:02.00
     Peak level 92.5 %
     Extraction speed 2.6 X
     Track quality 99.9 %
     Test CRC D696C865
     Copy CRC D696C865
     Track not present in AccurateRip database
     Copy OK
Track  2
     Filename D:\anan\0_rip\Various - Autumn Leaves [FLAC]\02 - Resent.wav
     Pre-gap length  0:00:02.25
     Peak level 91.7 %
     Extraction speed 3.5 X
     Track quality 100.0 %
     Test CRC A05C57A6
     Copy CRC A05C57A6
     Track not present in AccurateRip database
     Copy OK
Track  3
     Filename D:\anan\0_rip\Various - Autumn Leaves [FLAC]\03 - Try to Forget.wav
     Pre-gap length  0:00:02.25
     Peak level 89.0 %
     Extraction speed 3.5 X
     Track quality 100.0 %
     Test CRC 58804F47
     Copy CRC 58804F47
     Track not present in AccurateRip database
     Copy OK
Track  4
     Filename D:\anan\0_rip\Various - Autumn Leaves [FLAC]\04 - Back to Metropolis.wav
     Pre-gap length  0:00:02.25
     Peak level 92.4 %
     Extraction speed 3.9 X
     Track quality 100.0 %
     Test CRC 2D062325
     Copy CRC 2D062325
     Track not present in AccurateRip database
     Copy OK
Track  5
     Filename D:\anan\0_rip\Various - Autumn Leaves [FLAC]\05 - Within.wav
     Pre-gap length  0:00:02.25
     Peak level 97.9 %
     Extraction speed 3.9 X
     Track quality 100.0 %
     Test CRC D8778025
     Copy CRC D8778025
     Track not present in AccurateRip database
     Copy OK
Track  6
     Filename D:\anan\0_rip\Various - Autumn Leaves [FLAC]\06 - Reduction.wav
     Pre-gap length  0:00:02.25
     Peak level 90.9 %
     Extraction speed 4.2 X
     Track quality 100.0 %
     Test CRC 8816B082
     Copy CRC 8816B082
     Track not present in AccurateRip database
     Copy OK
Track  7
     Filename D:\anan\0_rip\Various - Autumn Leaves [FLAC]\07 - Lustrous Christ.wav
     Pre-gap length  0:00:02.25
     Peak level 89.1 %
     Extraction speed 4.2 X
     Track quality 100.0 %
     Test CRC 8A134737
     Copy CRC 8A134737
     Track not present in AccurateRip database
     Copy OK
Track  8
     Filename D:\anan\0_rip\Various - Autumn Leaves [FLAC]\08 - Build Into Nothing.wav
     Pre-gap length  0:00:02.25
     Peak level 88.7 %
     Extraction speed 4.6 X
     Track quality 100.0 %
     Test CRC 1C6239EA
     Copy CRC 1C6239EA
     Track not present in AccurateRip database
     Copy OK
Track  9
     Filename D:\anan\0_rip\Various - Autumn Leaves [FLAC]\09 - DKW.wav
     Pre-gap length  0:00:02.25
     Peak level 96.8 %
     Extraction speed 3.7 X
     Track quality 99.9 %
     Test CRC 0B23F758
     Copy CRC 0B23F758
     Track not present in AccurateRip database
     Copy OK
Track 10
     Filename D:\anan\0_rip\Various - Autumn Leaves [FLAC]\10 - Goathead.wav
     Pre-gap length  0:00:02.25
     Peak level 91.8 %
     Extraction speed 4.7 X
     Track quality 100.0 %
     Test CRC 49C1B056
     Copy CRC 49C1B056
     Track not present in AccurateRip database
     Copy OK
Track 11
     Filename D:\anan\0_rip\Various - Autumn Leaves [FLAC]\11 - Overwhelmed.wav
     Pre-gap length  0:00:02.25
     Peak level 99.9 %
     Extraction speed 5.1 X
     Track quality 100.0 %
     Test CRC CC4BBED3
     Copy CRC CC4BBED3
     Track not present in AccurateRip database
     Copy OK
Track 12
     Filename D:\anan\0_rip\Various - Autumn Leaves [FLAC]\12 - Hudvisa.wav
     Pre-gap length  0:00:02.25
     Peak level 99.9 %
     Extraction speed 5.0 X
     Track quality 100.0 %
     Test CRC 38A0D9BE
     Copy CRC 38A0D9BE
     Track not present in AccurateRip database
     Copy OK
Track 13
     Filename D:\anan\0_rip\Various - Autumn Leaves [FLAC]\13 - I Dedicate.wav
     Pre-gap length  0:00:02.25
     Peak level 97.0 %
     Extraction speed 4.3 X
     Track quality 99.9 %
     Test CRC B9983A95
     Copy CRC B9983A95
     Track not present in AccurateRip database
     Copy OK
Track 14
     Filename D:\anan\0_rip\Various - Autumn Leaves [FLAC]\14 - Teenage Mutant Bikini Island Kids.wav
     Pre-gap length  0:00:02.25
     Peak level 100.0 %
     Extraction speed 5.4 X
     Track quality 100.0 %
     Test CRC 4AA4CB3A
     Copy CRC 4AA4CB3A
     Track not present in AccurateRip database
     Copy OK
Track 15
     Filename D:\anan\0_rip\Various - Autumn Leaves [FLAC]\15 - Deviate.wav
     Pre-gap length  0:00:02.25
     Peak level 96.5 %
     Extraction speed 4.4 X
     Track quality 99.9 %
     Test CRC CDC9A8E9
     Copy CRC CDC9A8E9
     Track not present in AccurateRip database
     Copy OK
Track 16
     Filename D:\anan\0_rip\Various - Autumn Leaves [FLAC]\16 - The Replicant.wav
     Pre-gap length  0:00:02.25
     Peak level 92.4 %
     Extraction speed 5.7 X
     Track quality 100.0 %
     Test CRC 9B348716
     Copy CRC 9B348716
     Track not present in AccurateRip database
     Copy OK
Track 17
     Filename D:\anan\0_rip\Various - Autumn Leaves [FLAC]\17 - Shambles.wav
     Pre-gap length  0:00:02.25
     Peak level 93.7 %
     Extraction speed 6.0 X
     Track quality 100.0 %
     Test CRC C695190B
     Copy CRC C695190B
     Track not present in AccurateRip database
     Copy OK
None of the tracks are present in the AccurateRip database
No errors occurred
End of status report
Код:
REM DATE 1992
REM DISCID F210D311
REM COMMENT "ExactAudioCopy v1.0b1"
PERFORMER "Various Artists"
TITLE "Autumn Leaves"
FILE "01. Shewird - Fake.wav" WAVE
  TRACK 01 AUDIO
    TITLE "Fake"
    PERFORMER "Sheweird"
    INDEX 01 00:00:00
  TRACK 02 AUDIO
    TITLE "Resent"
    PERFORMER "Malaise"
    INDEX 00 05:07:60
FILE "02. Malaise - Resent.wav" WAVE
    INDEX 01 00:00:00
  TRACK 03 AUDIO
    TITLE "Try to Forget"
    PERFORMER "DeVision"
    INDEX 00 06:08:10
FILE "03. DeVision - Try to Forget.wav" WAVE
    INDEX 01 00:00:00
  TRACK 04 AUDIO
    TITLE "Back to Metropolis"
    PERFORMER "Native Cry"
    INDEX 00 03:28:32
FILE "04. Native Cry - Back to Metropolis.wav" WAVE
    INDEX 01 00:00:00
  TRACK 05 AUDIO
    TITLE "Within"
    PERFORMER "The Foundation"
    INDEX 00 04:31:38
FILE "05. The Foundation - Within.wav" WAVE
    INDEX 01 00:00:00
  TRACK 06 AUDIO
    TITLE "Reduction"
    PERFORMER "Plastic Noise Experience"
    INDEX 00 03:29:35
FILE "06. Plastic Noise Experience - Reduction.wav" WAVE
    INDEX 01 00:00:00
  TRACK 07 AUDIO
    TITLE "Lustrous Christ"
    PERFORMER "The Tragic Comedy"
    INDEX 00 03:49:42
FILE "07. The Tragic Comedy - Lustrous Christ.wav" WAVE
    INDEX 01 00:00:00
  TRACK 08 AUDIO
    TITLE "Build Into Nothing"
    PERFORMER "The Classic Conviction"
    INDEX 00 03:12:08
FILE "08. The Classic Conviction - Build Into Nothing.wav" WAVE
    INDEX 01 00:00:00
  TRACK 09 AUDIO
    TITLE "DKW"
    PERFORMER "Art Fact"
    INDEX 00 04:37:02
FILE "09. Art Fact - DKW.wav" WAVE
    INDEX 01 00:00:00
  TRACK 10 AUDIO
    TITLE "Goathead"
    PERFORMER "The Wounded Meadow"
    INDEX 00 03:35:13
FILE "10. The Wounded Meadow - Goathead.wav" WAVE
    INDEX 01 00:00:00
  TRACK 11 AUDIO
    TITLE "Overwhelmed"
    PERFORMER "Nuova Meccanica"
    INDEX 00 03:30:32
FILE "11. Nuova Meccanica - Overwhelmed.wav" WAVE
    INDEX 01 00:00:00
  TRACK 12 AUDIO
    TITLE "Hudvisa"
    PERFORMER "New Form"
    INDEX 00 04:01:03
FILE "12. New Form - Hudvisa.wav" WAVE
    INDEX 01 00:00:00
  TRACK 13 AUDIO
    TITLE "I Dedicate"
    PERFORMER "Voister Litz"
    INDEX 00 03:22:22
FILE "13. Voister Litz - I Dedicate.wav" WAVE
    INDEX 01 00:00:00
  TRACK 14 AUDIO
    TITLE "Teenage Mutant Bikini Island Kids"
    PERFORMER "Derrida Dance Corps"
    INDEX 00 04:11:28
FILE "14. Derrida Dance Corps - Teenage Mutant Bikini Island Kids.wav" WAVE
    INDEX 01 00:00:00
  TRACK 15 AUDIO
    TITLE "Deviate"
    PERFORMER "Alter Ego"
    INDEX 00 04:45:57
FILE "15. Alter Ego - Deviate.wav" WAVE
    INDEX 01 00:00:00
  TRACK 16 AUDIO
    TITLE "The Replicant"
    PERFORMER "The Covenant"
    INDEX 00 03:48:48
FILE "16. The Covenant - The Replicant.wav" WAVE
    INDEX 01 00:00:00
  TRACK 17 AUDIO
    TITLE "Shambles"
    PERFORMER "Terra Zone"
    INDEX 00 04:07:40
FILE "17. Terra Zone - Shambles.wav" WAVE
    INDEX 01 00:00:00
Правила, инструкции, FAQ!!!
Торрент  Добавлен [26 июн 2020, 17:04] Скачать торрент Магнет ссылка
Скачать торрент
[ Размер 18.58 КБ / Просмотров 3 ]

Статус
Проверен 
 
Размер  430.97 МБ
Приватный: Нет (DHT включён)
.torrent скачан  0
 


     Отправить личное сообщение
   
Страница 1 из 1
Показать сообщения за:  Поле сортировки  
Начать новую тему Ответить на тему


Сейчас этот форум просматривают: нет зарегистрированных пользователей и гости: 0


Вы не можете начинать темы
Вы не можете отвечать на сообщения
Вы не можете редактировать свои сообщения
Вы не можете удалять свои сообщения
Вы не можете добавлять вложения

Перейти:  
cron