Начать новую тему Ответить на тему
Статистика раздачи
Размер: 278.21 МБ | Добавлен: 26 июн 2020, 16:50 | Скачали: 0
Сидеров: 0  [0 байт/сек]    Личеров: 0  [0 байт/сек]
Пред. тема | След. тема 

Автор
Сообщение

СообщениеДобавлено: 26 июн 2020, 16:50 

Ответить с цитатой 

FrightDoll - Reference Version
Жанр: Electro / Synthgoth / EBM / Futurepop
Год выпуска диска: 2007
Производитель диска: US
Аудио кодек: APE
Тип рипа: image+.cue
Битрейт аудио: lossless
Продолжительность: 37:57
Трэклист:
1 Automated (3:53)
2 Sessions Of Expression (3:19)
3 Tension (4:10)
4 Questions (3:24)
5 Marionette (4:00)
6 Unit (2:09)
7 Neutrino Glace (4:00)
8 Gravity (2:56)
9 Crash (2:40)
10 Version (3:38)
11 Strange (3:45)
Доп. информация: FrightDoll Records; FDR001
Код:
Exact Audio Copy V0.99 prebeta 4 from 23. January 2008
EAC extraction logfile from 3. December 2008, 14:04
FrightDoll / Reference Version
Used drive  : PIONEER DVD-RW  DVR-112D   Adapter: 1  ID: 1
Read mode               : Secure
Utilize accurate stream : Yes
Defeat audio cache      : Yes
Make use of C2 pointers : No
Read offset correction                      : 48
Overread into Lead-In and Lead-Out          : No
Fill up missing offset samples with silence : Yes
Delete leading and trailing silent blocks   : No
Null samples used in CRC calculations       : Yes
Used interface                              : Installed external ASPI interface
Used output format : Internal WAV Routines
Sample format      : 44.100 Hz; 16 Bit; Stereo
TOC of the extracted CD
     Track |   Start  |  Length  | Start sector | End sector
    ---------------------------------------------------------
        1  |  0:00.00 |  3:53.02 |         0  |       17476
        2  |  3:53.02 |  3:19.22 |     17477  |       32423
        3  |  7:12.24 |  4:10.12 |     32424  |       51185
        4  | 11:22.36 |  3:24.13 |     51186  |       66498
        5  | 14:46.49 |  4:00.12 |     66499  |       84510
        6  | 18:46.61 |  2:09.41 |     84511  |       94226
        7  | 20:56.27 |  4:00.49 |     94227  |      112275
        8  | 24:57.01 |  2:56.42 |    112276  |      125517
        9  | 27:53.43 |  2:40.05 |    125518  |      137522
       10  | 30:33.48 |  3:38.13 |    137523  |      153885
       11  | 34:11.61 |  3:45.31 |    153886  |      170791
Range status and errors
Selected range
   Filename J:\FrightDoll - Reference Version\CDImage.wav
   Peak level 98.9 %
   Range quality 100.0 %
   Test CRC 2E2391AC
   Copy CRC 2E2391AC
   Copy OK
No errors occurred
AccurateRip summary
Track  1  not present in database
Track  2  not present in database
Track  3  not present in database
Track  4  not present in database
Track  5  not present in database
Track  6  not present in database
Track  7  not present in database
Track  8  not present in database
Track  9  not present in database
Track 10  not present in database
Track 11  not present in database
None of the tracks are present in the AccurateRip database
End of status report
Код:
AUDIOCHECKER v2.0 beta (build 457) - by Dester - opdester@freemail.hu
~~~~~~~~~~~~~~~~~~~~~~~~~~~~~~~~~~
-=== DO NOT EDIT THIS FILE! ===-
Path: ...\FrightDoll - Reference Version
01 -=- CDImage.wav -=- CDDA (99%)
162884180
Правила, инструкции, FAQ!!!
Торрент  Добавлен [26 июн 2020, 16:50] Скачать торрент Магнет ссылка
Скачать торрент
[ Размер 11.72 КБ / Просмотров 4 ]

Статус
Проверен 
 
Размер  278.21 МБ
Приватный: Нет (DHT включён)
.torrent скачан  0
 


     Отправить личное сообщение
   
Страница 1 из 1
Показать сообщения за:  Поле сортировки  
Начать новую тему Ответить на тему


Сейчас этот форум просматривают: нет зарегистрированных пользователей и гости: 0


Вы не можете начинать темы
Вы не можете отвечать на сообщения
Вы не можете редактировать свои сообщения
Вы не можете удалять свои сообщения
Вы не можете добавлять вложения

Перейти:  
cron