Начать новую тему Ответить на тему
Статистика раздачи
Размер: 189.94 МБ | Добавлен: 26 июн 2020, 17:15 | Скачали: 0
Сидеров: 0  [0 байт/сек]    Личеров: 0  [0 байт/сек]
Пред. тема | След. тема 

Автор
Сообщение

СообщениеДобавлено: 26 июн 2020, 17:15 

Ответить с цитатой 

Eco - Gier, Hass & Liebe (Maxi-Single)
Жанр: Electro, Synth-pop, Techno-Industrial
Страна-производитель диска: Germany
Год издания диска: 1994
Издатель (лейбл): Off Beat
Номер по каталогу: SPV 065-22032
Страна: Germany
Аудио кодек: FLAC (*.flac)
Тип рипа: image+.cue
Битрейт аудио: lossless
Продолжительность: 26:32
Источник (релизер): Audio CD
Наличие сканов в содержимом раздачи: да
Треклист:
1 Gier
2 Hass & Liebe (Emotional Update)
3 Gedanken (Neu Gier Mix)
4 Compubrain
5 Hass & Liebe (Original Version)
Код:
Exact Audio Copy V0.99 prebeta 5 from 4. May 2009
Отчёт EAC об извлечении, выполненном 31. марта 2011, 20:09
Eco / Gier, Hass & Liebe EP
Дисковод: _NEC    DVD_RW ND-4550A   Adapter: 0  ID: 2
Режим чтения                 : Достоверность
Использование точного потока : Да
Отключение кэша аудио        : Да
Использование указателей C2  : Нет
Коррекция смещения при чтении                     : 48
Способность читать области Lead-in и Lead-out     : Нет
Заполнение пропущенных сэмплов тишиной            : Да
Удаление блоков с тишиной в начале и конце        : Нет
При вычислениях CRC использовались нулевые сэмплы : Да
Интерфейс                                         : Встроенный Win32-интерфейс для Win NT/2000
Выходной формат : Внутренние WAV-операции
Формат сэмплов  : 44.100 Гц; 16 бит; стерео
TOC извлечённого CD
     Трек |   Старт  | Длительность | Начальный сектор | Конечный сектор
    ---------------------------------------------------------------------
       1  |  0:00.32 |    5:18.60   |          32      |      23941
       2  |  5:19.17 |    5:01.73   |       23942      |      46589
       3  | 10:21.15 |    6:23.32   |       46590      |      75346
       4  | 16:44.47 |    5:00.73   |       75347      |      97919
       5  | 21:45.45 |    4:45.12   |       97920      |     119306
Характеристики диапазона извлечения и сообщения об ошибках
Выбранный диапазон
     Имя файла D:\Music\Eco - Gier, Hass & Liebe (1994)\Eco - Gier, Hass & Liebe EP.wav
     Пиковый уровень 100.0 %
     Качество диапазона 99.9 %
     CRC теста B51987EA
     CRC копии B51987EA
     Копирование... OK
Ошибок не произошло
AccurateRip: сводка
Трек  1  точное извлечение (доверие 7)  [5493598C]
Трек  2  точное извлечение (доверие 7)  [6C17631B]
Трек  3  точное извлечение (доверие 8)  [3EFE9205]
Трек  4  точное извлечение (доверие 8)  [9C96DA58]
Трек  5  точное извлечение (доверие 7)  [4E53FF13]
Все треки извлечены точно
Конец отчёта
Код:
REM GENRE Industrial
REM DATE 1994
REM DISCID 25063605
REM COMMENT "ExactAudioCopy v0.99pb5"
PERFORMER "Eco"
TITLE "Gier, Hass & Liebe EP"
FILE "Eco - Gier, Hass & Liebe EP.wav" WAVE
  TRACK 01 AUDIO
    TITLE "Gier"
    PERFORMER "Eco"
    INDEX 00 00:00:00
    INDEX 01 00:00:32
  TRACK 02 AUDIO
    TITLE "Hass & Liebe (Emotional Update)"
    PERFORMER "Eco"
    INDEX 00 05:17:42
    INDEX 01 05:19:17
  TRACK 03 AUDIO
    TITLE "Gedanken (Neu-Gier-Mix)"
    PERFORMER "Eco"
    INDEX 00 10:19:40
    INDEX 01 10:21:15
  TRACK 04 AUDIO
    TITLE "Compubrain"
    PERFORMER "Eco"
    INDEX 00 16:42:17
    INDEX 01 16:44:47
  TRACK 05 AUDIO
    TITLE "Hass & Liebe (Original Version)"
    PERFORMER "Eco"
    INDEX 00 21:43:15
    INDEX 01 21:45:45
Код:
Started at: четверг, 31. 03. 2011. - 20:19.11
1 file found
1 -===- D:\Music\Eco - Gier, Hass & Liebe (1994)\Eco - Gier, Hass & Liebe EP.wav
  Conclusion: this track is CDDA with probability 100%
Finished at: четверг, 31. 03. 2011. - 20:22.27 (operation time: 0:03.15)
Правила, инструкции, FAQ!!!
Торрент  Добавлен [26 июн 2020, 17:15] Скачать торрент Магнет ссылка
Скачать торрент
[ Размер 15.67 КБ / Просмотров 13 ]

Статус
Проверен 
 
Размер  189.94 МБ
Приватный: Нет (DHT включён)
.torrent скачан  0
 


     Отправить личное сообщение
   
Страница 1 из 1
Показать сообщения за:  Поле сортировки  
Начать новую тему Ответить на тему


Сейчас этот форум просматривают: нет зарегистрированных пользователей и гости: 0


Вы не можете начинать темы
Вы не можете отвечать на сообщения
Вы не можете редактировать свои сообщения
Вы не можете удалять свои сообщения
Вы не можете добавлять вложения

Перейти:  
cron