Начать новую тему Ответить на тему
Статистика раздачи
Размер: 464.06 МБ | Добавлен: 26 июн 2020, 16:50 | Скачали: 0
Сидеров: 0  [0 байт/сек]    Личеров: 0  [0 байт/сек]
Пред. тема | След. тема 

Автор
Сообщение

СообщениеДобавлено: 26 июн 2020, 16:50 

Ответить с цитатой 

Strategy - Assignment
Жанр: Electro, Synth-pop
Год выпуска диска: 2000
Производитель диска: Германия
Аудио кодек: APE
Тип рипа: image+.cue
Битрейт аудио: lossless
Продолжительность: 01:14:44
Трэклист:
01.Confidence
02.Intelligence
03.Erased
04.Resist
05.Stone Of Passion
06.Darkness
07.Truth Of Your Own
08.Time
09.In The Middle Of Nowhere
10.Fear (v1.0)
11.Out Of Control (v2.0)
12.Victory
13.War
14.Intelligence
Код:
 Exact Audio Copy V0.99 prebeta 5 from 4. May 2009
Отчёт EAC об извлечении, выполненном 28. июля 2009, 20:56
Strategy / Assignment
Дисковод: Optiarc DVD RW AD-7201S   Adapter: 1  ID: 1
Режим чтения                 : Достоверность
Использование точного потока : Да
Отключение кэша аудио        : Да
Использование указателей C2  : Нет
Коррекция смещения при чтении                     : 48
Способность читать области Lead-in и Lead-out     : Нет
Заполнение пропущенных сэмплов тишиной            : Да
Удаление блоков с тишиной в начале и конце        : Нет
При вычислениях CRC использовались нулевые сэмплы : Да
Интерфейс                                         : Установленный внешний
ASPI-интерфейс
Выходной формат : Внутренние WAV-операции
Формат сэмплов  : 44.100 Гц; 16 бит; стерео
TOC извлечённого CD
     Трек |   Старт  | Длительность | Начальный сектор | Конечный сектор
    ---------------------------------------------------------------------
       1  |  0:00.00 |    5:24.42   |           0      |      24341
       2  |  5:24.42 |    4:47.22   |       24342      |      45888
       3  | 10:11.64 |    4:41.03   |       45889      |      66966
       4  | 14:52.67 |    4:34.05   |       66967      |      87521
       5  | 19:26.72 |    5:52.01   |       87522      |     113922
       6  | 25:18.73 |    6:39.14   |      113923      |     143861
       7  | 31:58.12 |    5:12.47   |      143862      |     167308
       8  | 37:10.59 |    4:59.16   |      167309      |     189749
       9  | 42:10.00 |    4:23.69   |      189750      |     209543
      10  | 46:33.69 |    4:12.12   |      209544      |     228455
      11  | 50:46.06 |    6:07.20   |      228456      |     256000
      12  | 56:53.26 |    5:13.29   |      256001      |     279504
      13  | 62:06.55 |    5:07.61   |      279505      |     302590
      14  | 67:14.41 |    4:30.13   |      302591      |     322853
Характеристики диапазона извлечения и сообщения об ошибках
Выбранный диапазон
     Имя файла D:\Documents and Settings\Rodexx\Рабочий стол\Strategy -
assignment\Strategy - Assignment.wav
     Пиковый уровень 100.0 %
     Качество диапазона 100.0 %
     CRC теста 312596С7
     CRC копии 312596C7
     Копирование... OK
Ошибок не произошло
Конец отчёта
 
Label: Zoth Ommog
Catalog#: CD ZOT 259
Format: CD, Album
Country: Germany
Released: 03 Jul 2000
Genre: Electronic
Style: Industrial, Electro, Synth-pop
Credits: Written-by, Programmed By, Mixed By, Engineer, Artwork By [Design & Artwork] - Strategy
Правила, инструкции, FAQ!!!
Торрент  Добавлен [26 июн 2020, 16:50] Скачать торрент Магнет ссылка
Скачать торрент
[ Размер 18.85 КБ / Просмотров 3 ]

Статус
Проверен 
 
Размер  464.06 МБ
Приватный: Нет (DHT включён)
.torrent скачан  0
 


     Отправить личное сообщение
   
Страница 1 из 1
Показать сообщения за:  Поле сортировки  
Начать новую тему Ответить на тему


Сейчас этот форум просматривают: нет зарегистрированных пользователей и гости: 0


Вы не можете начинать темы
Вы не можете отвечать на сообщения
Вы не можете редактировать свои сообщения
Вы не можете удалять свои сообщения
Вы не можете добавлять вложения

Перейти:  
cron