Начать новую тему Ответить на тему
Статистика раздачи
Размер: 429.24 МБ | Добавлен: 26 июн 2020, 17:55 | Скачали: 0
Сидеров: 1  [0 байт/сек]    Личеров: 0  [0 байт/сек]
Пред. тема | След. тема 

Автор
Сообщение

СообщениеДобавлено: 26 июн 2020, 17:55 

Ответить с цитатой 

Static Icon - Sin Machine
Жанр: Electro, Synth-Pop
Год выпуска диска: 1996
Производитель диска: France
Аудио кодек: APE
Тип рипа: image+.cue
Битрейт аудио: lossless
Продолжительность: 58:21
Трэклист:
Bound
01. Institution 3:32
02. Love Dimension 3:53
03. Down To Me 4:10
04. Trinity 4:09
Passion
05. Use Your Soul 3:53
06. Rampage 4:38
07. Cold As Stone 3:03
08. Judgement Day 4:51
Release
09. Shame 4:26
10. Higher 4:13
11. Collective Heart 4:49
12. Reality Of Life 4:23
13. Angelic Hell 4:42
14. Another Time 3:33
Код:
Exact Audio Copy V0.99 prebeta 5 from 4. May 2009
Отчёт EAC об извлечении, выполненном 1. января 2010, 10:50
Static Icon / Sin Machine
Дисковод: ASUS    DRW-1814BL   Adapter: 1  ID: 0
Режим чтения                 : Достоверность
Использование точного потока : Да
Отключение кэша аудио        : Да
Использование указателей C2  : Нет
Коррекция смещения при чтении                     : 6
Способность читать области Lead-in и Lead-out     : Нет
Заполнение пропущенных сэмплов тишиной            : Да
Удаление блоков с тишиной в начале и конце        : Нет
При вычислениях CRC использовались нулевые сэмплы : Да
Интерфейс                                         : Установленный внешний ASPI-интерфейс
Выходной формат : Внутренние WAV-операции
Формат сэмплов  : 44.100 Гц; 16 бит; стерео
TOC извлечённого CD
     Трек |   Старт  | Длительность | Начальный сектор | Конечный сектор
    ---------------------------------------------------------------------
       1  |  0:00.00 |    3:32.27   |           0      |      15926
       2  |  3:32.27 |    3:53.33   |       15927      |      33434
       3  |  7:25.60 |    4:10.67   |       33435      |      52251
       4  | 11:36.52 |    4:09.45   |       52252      |      70971
       5  | 15:46.22 |    3:53.40   |       70972      |      88486
       6  | 19:39.62 |    4:38.03   |       88487      |     109339
       7  | 24:17.65 |    3:03.12   |      109340      |     123076
       8  | 27:21.02 |    4:51.03   |      123077      |     144904
       9  | 32:12.05 |    4:26.50   |      144905      |     164904
      10  | 36:38.55 |    4:13.27   |      164905      |     183906
      11  | 40:52.07 |    4:49.25   |      183907      |     205606
      12  | 45:41.32 |    4:23.43   |      205607      |     225374
      13  | 50:05.00 |    4:42.62   |      225375      |     246586
      14  | 54:47.62 |    3:33.05   |      246587      |     262566
Характеристики диапазона извлечения и сообщения об ошибках
Выбранный диапазон
     Имя файла E:\! РАЗДАЧИ\Static Icon - Sin Machine\Static Icon - Sin Machine.wav
     Пиковый уровень 97.7 %
     Качество диапазона 100.0 %
     CRC теста 0892432B
     CRC копии 0892432B
     Копирование... OK
Ошибок не произошло
AccurateRip: сводка
Трек  1  точное извлечение (доверие 2)  [4954A0FF]
Трек  2  точное извлечение (доверие 2)  [F2A3218C]
Трек  3  точное извлечение (доверие 2)  [55AB5237]
Трек  4  точное извлечение (доверие 2)  [7A355E41]
Трек  5  точное извлечение (доверие 2)  [AEF5D35B]
Трек  6  точное извлечение (доверие 2)  [38057E4A]
Трек  7  точное извлечение (доверие 2)  [91EE65A9]
Трек  8  нет в базе данных
Трек  9  точное извлечение (доверие 2)  [843876CF]
Трек 10  точное извлечение (доверие 2)  [307AD940]
Трек 11  нет в базе данных
Трек 12  точное извлечение (доверие 2)  [CDF50D96]
Трек 13  нет в базе данных
Трек 14  точное извлечение (доверие 2)  [69275703]
11 трек(и) скопированы точно
 3 трек(и) не содержатся в базе AccurateRip
Некоторые треки не прошли проверку на точность
Конец отчёта
Доп. информация:
(p) 1996 Modern Music Records
(c) 1996 Dark Wings
MA67-2
сканы 300dpi приложены
Правила, инструкции, FAQ!!!
Торрент  Добавлен [26 июн 2020, 17:55] Скачать торрент Магнет ссылка
Скачать торрент
[ Размер 34.65 КБ / Просмотров 7 ]

Статус
Проверен 
 
Размер  429.24 МБ
Приватный: Нет (DHT включён)
.torrent скачан  0
 


     Отправить личное сообщение
   
Страница 1 из 1
Показать сообщения за:  Поле сортировки  
Начать новую тему Ответить на тему


Сейчас этот форум просматривают: нет зарегистрированных пользователей и гости: 0


Вы не можете начинать темы
Вы не можете отвечать на сообщения
Вы не можете редактировать свои сообщения
Вы не можете удалять свои сообщения
Вы не можете добавлять вложения

Перейти:  
cron