Начать новую тему Ответить на тему
Статистика раздачи
Размер: 433.27 МБ | Добавлен: 26 июн 2020, 19:03 | Скачали: 0
Сидеров: 3  [0 байт/сек]    Личеров: 1  [0 байт/сек]
Пред. тема | След. тема 

Автор
Сообщение

СообщениеДобавлено: 26 июн 2020, 19:03 

Ответить с цитатой 

Neuroactive / Morphology
Жанр: Electro, Synth-pop
Страна-производитель диска: Austria
Год издания диска: 1994
Издатель (лейбл): Cyberware Productions
Номер по каталогу: net003
Страна: Finland
Аудио кодек: FLAC (*.flac)
Тип рипа: image+.cue
Битрейт аудио: lossless
Продолжительность: 63:25
Источник (релизер): свой CD
Наличие сканов в содержимом раздачи: нет
Треклист:
1 Logic 2:52
2 Scanner 5:21
3 Burning 3:45
4 Manipulator 5:42
5 Obsession 4:30
6 Mécanique 3:51
7 Wrecked 5:40
8 Erased 3:53
9 The Clone 4:28
10 Ex-Tension 4:52
11 Enforcer 5:29
12 Recall 4:11
13 The Moral Solarium 3:29
14 Media Prayer 5:02
Код:
Exact Audio Copy V0.99 prebeta 4 from 23. January 2008
Отчёт EAC об извлечении, выполненном 28. февраля 2011, 20:02
Neuroactive / Morphology
Дисковод: PIONEER DVD-RW  DVR-110D   Adapter: 0  ID: 1
Режим чтения                 : Достоверность
Использование точного потока : Да
Отключение кэша аудио        : Да
Использование указателей C2  : Нет
Коррекция смещения при чтении                     : 48
Способность читать области Lead-in и Lead-out     : Да
Заполнение пропущенных сэмплов тишиной            : Да
Удаление блоков с тишиной в начале и конце        : Нет
При вычислениях CRC использовались нулевые сэмплы : Да
Интерфейс                                         : Установленный внешний ASPI-интерфейс
Выходной формат : Внутренние WAV-операции
Формат сэмплов  : 44.100 Гц; 16 бит; стерео
TOC извлечённого CD
     Трек |   Старт  | Длительность | Начальный сектор | Конечный сектор
    ---------------------------------------------------------------------
       1  |  0:00.00 |    2:51.10   |           0      |      12834
       2  |  2:51.10 |    5:21.30   |       12835      |      36939
       3  |  8:12.40 |    3:46.50   |       36940      |      53939
       4  | 11:59.15 |    5:40.50   |       53940      |      79489
       5  | 17:39.65 |    4:31.32   |       79490      |      99846
       6  | 22:11.22 |    3:53.40   |       99847      |     117361
       7  | 26:04.62 |    5:42.18   |      117362      |     143029
       8  | 31:47.05 |    3:53.50   |      143030      |     160554
       9  | 35:40.55 |    4:28.52   |      160555      |     180706
      10  | 40:09.32 |    4:55.00   |      180707      |     202831
      11  | 45:04.32 |    5:30.18   |      202832      |     227599
      12  | 50:34.50 |    4:13.25   |      227600      |     246599
      13  | 54:48.00 |    3:33.37   |      246600      |     262611
      14  | 58:21.37 |    5:03.38   |      262612      |     285374
Характеристики диапазона извлечения и сообщения об ошибках
Выбранный диапазон
     Имя файла D:\мои документы\music\Neuroactive-Morphology 1994\Neuroactive - Morphology.wav
     Пиковый уровень 100.0 %
     Качество диапазона 100.0 %
     CRC копии C05DC1C0
     Копирование... OK
Ошибок не произошло
AccurateRip: сводка
Трек  1  нет в базе данных
Трек  2  нет в базе данных
Трек  3  нет в базе данных
Трек  4  нет в базе данных
Трек  5  нет в базе данных
Трек  6  нет в базе данных
Трек  7  нет в базе данных
Трек  8  нет в базе данных
Трек  9  нет в базе данных
Трек 10  нет в базе данных
Трек 11  нет в базе данных
Трек 12  нет в базе данных
Трек 13  нет в базе данных
Трек 14  нет в базе данных
Ни одного трека нет в базе AccurateRip
Конец отчёта
Код:
REM GENRE Industrial
REM DATE 1994
REM DISCID A40EDD0E
REM COMMENT "ExactAudioCopy v0.99pb4"
PERFORMER "Neuroactive"
TITLE "Morphology"
FILE "Neuroactive - Morphology.wav" WAVE
  TRACK 01 AUDIO
    TITLE "Logic"
    PERFORMER "Neuroactive"
    INDEX 01 00:00:00
  TRACK 02 AUDIO
    TITLE "Scanner"
    PERFORMER "Neuroactive"
    INDEX 00 02:47:50
    INDEX 01 02:51:10
  TRACK 03 AUDIO
    TITLE "Burning"
    PERFORMER "Neuroactive"
    INDEX 00 08:11:02
    INDEX 01 08:12:40
  TRACK 04 AUDIO
    TITLE "Manipulation"
    PERFORMER "Neuroactive"
    INDEX 00 11:57:70
    INDEX 01 11:59:15
  TRACK 05 AUDIO
    TITLE "Obsession"
    PERFORMER "Neuroactive"
    INDEX 00 17:38:10
    INDEX 01 17:39:65
  TRACK 06 AUDIO
    TITLE "Mecanique"
    PERFORMER "Neuroactive"
    INDEX 00 22:07:40
    INDEX 01 22:11:22
  TRACK 07 AUDIO
    TITLE "Wrecked"
    PERFORMER "Neuroactive"
    INDEX 00 25:59:65
    INDEX 01 26:04:62
  TRACK 08 AUDIO
    TITLE "Erased"
    PERFORMER "Neuroactive"
    INDEX 00 31:42:25
    INDEX 01 31:47:05
  TRACK 09 AUDIO
    TITLE "The Clone"
    PERFORMER "Neuroactive"
    INDEX 00 35:38:50
    INDEX 01 35:40:55
  TRACK 10 AUDIO
    TITLE "Ex-Tension"
    PERFORMER "Neuroactive"
    INDEX 00 40:05:72
    INDEX 01 40:09:32
  TRACK 11 AUDIO
    TITLE "Enforcer"
    PERFORMER "Neuroactive"
    INDEX 00 45:00:30
    INDEX 01 45:04:32
  TRACK 12 AUDIO
    TITLE "Recall"
    PERFORMER "Neuroactive"
    INDEX 00 50:30:70
    INDEX 01 50:34:50
  TRACK 13 AUDIO
    TITLE "The Moral Solarium"
    PERFORMER "Neuroactive"
    INDEX 00 54:46:02
    INDEX 01 54:48:00
  TRACK 14 AUDIO
    TITLE "Media Prayer"
    PERFORMER "Neuroactive"
    INDEX 00 58:19:22
    INDEX 01 58:21:37
Доп. информация: http://www.discogs.com/Neuroactive-Morphology/release/155041
Правила, инструкции, FAQ!!!
Торрент  Добавлен [26 июн 2020, 19:03] Скачать торрент Магнет ссылка
Скачать торрент
[ Размер 17.53 КБ / Просмотров 8 ]

Статус
Проверен 
 
Размер  433.27 МБ
Приватный: Нет (DHT включён)
.torrent скачан  0
 


     Отправить личное сообщение
   
Страница 1 из 1
Показать сообщения за:  Поле сортировки  
Начать новую тему Ответить на тему


Сейчас этот форум просматривают: нет зарегистрированных пользователей и гости: 0


Вы не можете начинать темы
Вы не можете отвечать на сообщения
Вы не можете редактировать свои сообщения
Вы не можете удалять свои сообщения
Вы не можете добавлять вложения

Перейти:  
cron