Начать новую тему Ответить на тему
Статистика раздачи
Размер: 599.89 МБ | Добавлен: 26 июн 2020, 17:30 | Скачали: 0
Сидеров: 1  [0 байт/сек]    Личеров: 0  [0 байт/сек]
Пред. тема | След. тема 

Автор
Сообщение

СообщениеДобавлено: 26 июн 2020, 17:30 

Ответить с цитатой 

Homo Futura / Der Neue Mensch
Жанр: Electro, Synth-pop, Minimal
Страна-производитель диска: Germany
Год издания диска: 2011
Издатель (лейбл): Synthetic Symphony
Номер по каталогу: SPV 309232 CD-E
Формат: CD, Album, Enhanced
Аудиокодек: FLAC (*.flac)
Тип рипа: image+.cue
Битрейт аудио: lossless
Продолжительность: 0:54:09.06
Источник (релизер): Физический носитель (Собственный рип с оригинала).
Наличие сканов в содержимом раздачи: да
Треклист:
01. Die Welt Von Heute [3:45]
02. Klaustrophobie [3:23]
03. Nemesis [5:54]
04. Der Neue Mensch [4:25]
05. Links-Rechts [4:01]
06. Unbewegt [3:42]
07. Wir Schreien [4:03]
08. Ich-Komplex [3:19]
09. Die Mann-Maschine [3:32]
10. A.M.O.K. [3:34]
11. Komm In Mein Labor [4:12]
12. Isidor [4:04]
13. Das Tourette-Syndrom [2:58]
14. Geile Tiere [3:18]
+ bonus ( Клип на песню: Links-Rechts. Два концертных клипа на песни: Der Neue Mensch, Ich-Komplex )
Код:
Exact Audio Copy V1.0 beta 3 from 29. August 2011
EAC extraction logfile from 10. February 2012, 19:00
Homo Futura / Der Neue Mensch
Used drive  : PLEXTOR BDDVDR PX-B320SA   Adapter: 0  ID: 2
Read mode               : Secure
Utilize accurate stream : Yes
Defeat audio cache      : Yes
Make use of C2 pointers : No
Read offset correction                      : 6
Overread into Lead-In and Lead-Out          : No
Fill up missing offset samples with silence : Yes
Delete leading and trailing silent blocks   : No
Null samples used in CRC calculations       : Yes
Used interface                              : Native Win32 interface for Win NT & 2000
Used output format              : User Defined Encoder
Selected bitrate                : 128 kBit/s
Quality                         : High
Add ID3 tag                     : No
Command line compressor         : C:\Program Files (x86)\FLAC\flac.exe
Additional command line options : -V -8 -T "Date=%year%" -T "Genre=%genre%" %source%
TOC of the extracted CD
     Track |   Start  |  Length  | Start sector | End sector
    ---------------------------------------------------------
        1  |  0:00.00 |  3:44.63 |         0    |    16862
        2  |  3:44.63 |  3:23.09 |     16863    |    32096
        3  |  7:07.72 |  5:54.20 |     32097    |    58666
        4  | 13:02.17 |  4:24.67 |     58667    |    78533
        5  | 17:27.09 |  4:00.70 |     78534    |    96603
        6  | 21:28.04 |  3:41.58 |     96604    |   113236
        7  | 25:09.62 |  4:02.71 |    113237    |   131457
        8  | 29:12.58 |  3:19.05 |    131458    |   146387
        9  | 32:31.63 |  3:31.64 |    146388    |   162276
       10  | 36:03.52 |  3:34.23 |    162277    |   178349
       11  | 39:38.00 |  4:11.40 |    178350    |   197214
       12  | 43:49.40 |  4:03.47 |    197215    |   215486
       13  | 47:53.12 |  2:58.18 |    215487    |   228854
       14  | 50:51.30 |  3:17.51 |    228855    |   243680
       15  | 56:41.06 | 12:57.60 |    255081    |   313415
Range status and errors
Selected range
     Filename D:\Homo Futura - Der Neue Mensch (2011)\Homo Futura - Der Neue Mensch.wav
     Peak level 89.1 %
     Extraction speed 9.2 X
     Range quality 100.0 %
     Test CRC 6DA56B61
     Copy CRC 6DA56B61
     Copy OK
No errors occurred
AccurateRip summary
Track  1  not present in database
Track  2  not present in database
Track  3  not present in database
Track  4  not present in database
Track  5  not present in database
Track  6  not present in database
Track  7  not present in database
Track  8  not present in database
Track  9  not present in database
Track 10  not present in database
Track 11  not present in database
Track 12  not present in database
Track 13  not present in database
Track 14  not present in database
None of the tracks are present in the AccurateRip database
End of status report
==== Log checksum AFA2817D69638C9523C45A7A1A638126D32DEEFC3B43A17F49496F3CCAD2CE08 ====
Код:
General
Complete name                            : E:\homo-futura-links-rechts.wmv
Format                                   : Windows Media
File size                                : 69.5 MiB
Duration                                 : 4mn 54s
Overall bit rate mode                    : Constant
Overall bit rate                         : 1 977 Kbps
Maximum Overall bit rate                 : 2 072 Kbps
Encoded date                             : UTC 2011-02-18 19:56:13.125
Application                              : Windows Movie Maker 2.1.4026.0
Video
ID                                       : 2
Format                                   : VC-1
Format profile                           : MP@ML
Codec ID                                 : WMV3
Codec ID/Info                            : Windows Media Video 9
Codec ID/Hint                            : WMV3
Description of the codec                 : Windows Media Video 9 - Professional
Duration                                 : 4mn 54s
Bit rate mode                            : Constant
Bit rate                                 : 1 893 Kbps
Width                                    : 640 pixels
Height                                   : 480 pixels
Display aspect ratio                     : 4:3
Frame rate                               : 25.000 fps
Bit depth                                : 8 bits
Scan type                                : Progressive
Compression mode                         : Lossy
Bits/(Pixel*Frame)                       : 0.246
Stream size                              : 66.5 MiB (96%)
Language                                 : German
Audio
ID                                       : 1
Format                                   : WMA
Format version                           : Version 2
Codec ID                                 : 161
Codec ID/Info                            : Windows Media Audio
Description of the codec                 : Windows Media Audio 9.1 - 160 kbps, 44 kHz, stereo (A/V) 1-pass CBR
Duration                                 : 4mn 54s
Bit rate mode                            : Constant
Bit rate                                 : 160 Kbps
Channel(s)                               : 2 channels
Sampling rate                            : 44.1 KHz
Bit depth                                : 16 bits
Stream size                              : 5.62 MiB (8%)
Language                                 : German
Код:
General
Complete name                            : E:\BONUS\homo-futura-medley-Der neue Mensch.avi
Format                                   : Windows Media
File size                                : 24.2 MiB
Duration                                 : 5mn 12s
Overall bit rate mode                    : Constant
Overall bit rate                         : 649 Kbps
Maximum Overall bit rate                 : 710 Kbps
Encoded date                             : UTC 2006-05-22 17:27:04.281
Video
ID                                       : 2
Format                                   : WMV2
Codec ID                                 : WMV2
Codec ID/Info                            : Windows Media Video 8
Description of the codec                 : Windows Media Video V8
Duration                                 : 5mn 12s
Bit rate mode                            : Constant
Bit rate                                 : 636 Kbps
Width                                    : 352 pixels
Height                                   : 288 pixels
Display aspect ratio                     : 1.222
Frame rate                               : 30.000 fps
Standard                                 : PAL
Bit depth                                : 8 bits
Bits/(Pixel*Frame)                       : 0.209
Stream size                              : 23.7 MiB (98%)
Language                                 : German
Audio
ID                                       : 1
Format                                   : WMA
Format version                           : Version 2
Codec ID                                 : 161
Codec ID/Info                            : Windows Media Audio
Description of the codec                 : Windows Media Audio 9.1 -  64 kbps, 44 kHz, stereo (A/V) 1-pass CBR
Duration                                 : 5mn 12s
Bit rate mode                            : Constant
Bit rate                                 : 64.0 Kbps
Channel(s)                               : 2 channels
Sampling rate                            : 44.1 KHz
Bit depth                                : 16 bits
Stream size                              : 2.38 MiB (10%)
Language                                 : German
NumberOfFrames                           : 1680
Код:
General
Complete name                            : E:\BONUS\homo-futura-medley-ICH-Komplex.avi
Format                                   : Windows Media
File size                                : 19.8 MiB
Duration                                 : 4mn 6s
Overall bit rate mode                    : Constant
Overall bit rate                         : 674 Kbps
Maximum Overall bit rate                 : 710 Kbps
Encoded date                             : UTC 2006-04-11 22:43:36.656
Video
ID                                       : 2
Format                                   : WMV2
Codec ID                                 : WMV2
Codec ID/Info                            : Windows Media Video 8
Description of the codec                 : Windows Media Video V8
Duration                                 : 4mn 6s
Bit rate mode                            : Constant
Bit rate                                 : 636 Kbps
Width                                    : 352 pixels
Height                                   : 288 pixels
Display aspect ratio                     : 1.222
Frame rate                               : 30.000 fps
Standard                                 : PAL
Bit depth                                : 8 bits
Bits/(Pixel*Frame)                       : 0.209
Stream size                              : 18.7 MiB (94%)
Language                                 : German
Audio
ID                                       : 1
Format                                   : WMA
Format version                           : Version 2
Codec ID                                 : 161
Codec ID/Info                            : Windows Media Audio
Description of the codec                 : Windows Media Audio 9.1 -  64 kbps, 44 kHz, stereo (A/V) 1-pass CBR
Duration                                 : 4mn 6s
Bit rate mode                            : Constant
Bit rate                                 : 64.0 Kbps
Channel(s)                               : 2 channels
Sampling rate                            : 44.1 KHz
Bit depth                                : 16 bits
Stream size                              : 1.88 MiB (9%)
Language                                 : German
NumberOfFrames                           : 1325
Всё содержимое мультимедийной части данного издания помещено в папку Extra.
На оригинале, согласно ТОС, дата-трек находится в конце диска.
Правила, инструкции, FAQ!!!
Торрент  Добавлен [26 июн 2020, 17:30] Скачать торрент Магнет ссылка
Скачать торрент
[ Размер 13.54 КБ / Просмотров 18 ]

Статус
Проверен 
 
Размер  599.89 МБ
Приватный: Нет (DHT включён)
.torrent скачан  0
 


     Отправить личное сообщение
   
Страница 1 из 1
Показать сообщения за:  Поле сортировки  
Начать новую тему Ответить на тему


Сейчас этот форум просматривают: нет зарегистрированных пользователей и гости: 0


Вы не можете начинать темы
Вы не можете отвечать на сообщения
Вы не можете редактировать свои сообщения
Вы не можете удалять свои сообщения
Вы не можете добавлять вложения

Перейти:  
cron