Начать новую тему Ответить на тему
Статистика раздачи
Размер: 334.96 МБ | Добавлен: 26 июн 2020, 19:45 | Скачали: 0
Сидеров: 1  [0 байт/сек]    Личеров: 0  [0 байт/сек]
Пред. тема | След. тема 

Автор
Сообщение

СообщениеДобавлено: 26 июн 2020, 19:45 

Ответить с цитатой 

Steril / Venus Trap
Жанр: Electro, Synth-pop, Industrial
Носитель: CD
Страна-производитель диска (релиза): Germany
Год издания: 1996
Издатель (лейбл): Off Beat
Номер по каталогу: SPV 085-43292
Страна исполнителя (группы): Germany
Аудиокодек: FLAC (*.flac)
Тип рипа: image+.cue
Продолжительность: 42:06
Источник: собственный рип
Наличие сканов в содержимом раздачи: да
Треклист:
1 Connected (Rage 1) 4:04
2 Shame 6:42
3 Zap! 5:31
4 Deep 4:07
5 I Believe 3:39
6 It Should Be Real 5:00
7 The Rain 5:32
8 Connected (Rage 2) 7:19
9 Your Religion 7:31
Код:
Exact Audio Copy V1.3 from 2. September 2016
Отчёт EAC об извлечении, выполненном 7. марта 2020, 20:37
Steril / Venus Trap
Дисковод: HL-DT-STDVD+-RW GU90N   Adapter: 1  ID: 0
Режим чтения                 : Достоверность
Использование точного потока : Да
Отключение кэша аудио        : Да
Использование указателей C2  : Нет
Коррекция смещения при чтении                     : 102
Способность читать области Lead-in и Lead-out     : Да
Заполнение пропущенных сэмплов тишиной            : Да
Удаление блоков с тишиной в начале и конце        : Нет
При вычислениях CRC использовались нулевые сэмплы : Да
Интерфейс                                         : Встроенный Win32-интерфейс для Win NT/2000
Выходной формат : Внутренние WAV-операции
Формат сэмплов  : 44.100 Гц; 16 бит; стерео
TOC извлечённого CD
     Трек |   Старт  | Длительность | Начальный сектор | Конечный сектор
    ---------------------------------------------------------------------
       1  |  0:00.32 |    4:07.25   |          32      |      18581
       2  |  4:07.57 |    6:44.25   |       18582      |      48906
       3  | 10:52.07 |    5:32.38   |       48907      |      73844
       4  | 16:24.45 |    4:04.25   |       73845      |      92169
       5  | 20:28.70 |    3:41.37   |       92170      |     108781
       6  | 24:10.32 |    5:01.13   |      108782      |     131369
       7  | 29:11.45 |    5:33.62   |      131370      |     156406
       8  | 34:45.32 |    7:21.25   |      156407      |     189506
       9  | 42:06.57 |    7:32.50   |      189507      |     223456
Характеристики диапазона извлечения и сообщения об ошибках
Выбранный диапазон
     Имя файла D:\Steril  ‎– Venus Trap . 1996\Steril - Venus Trap.wav
     Подозрительная позиция 0:49:39
     Пиковый уровень 100.0 %
     Скорость извлечения 4.0 X
     Качество диапазона 99.9 %
     CRC копии 6D906AA0
     Копирование завершено
Были ошибки
AccurateRip: сводка
Трек  1  : извлечено точно (доверие 7)  [7AF05F31]  (AR v2)
Трек  2  : извлечено точно (доверие 7)  [D67E8BA1]  (AR v2)
Трек  3  : извлечено точно (доверие 7)  [F6E42DBA]  (AR v2)
Трек  4  : извлечено точно (доверие 7)  [050F5882]  (AR v2)
Трек  5  : извлечено точно (доверие 7)  [295EB283]  (AR v2)
Трек  6  : извлечено точно (доверие 7)  [9B624CB4]  (AR v2)
Трек  7  : извлечено точно (доверие 7)  [95CD1E86]  (AR v2)
Трек  8  : извлечено точно (доверие 7)  [21F37B2E]  (AR v2)
Трек  9  точность не определена (достоверность 11)  [98FE0FB4], AccurateRip вернул [2D3573C0]  (AR v2)
 8 трек(и) скопированы точно
 1 трек(и) не удалось проверить на точность
Некоторые треки не прошли проверку на точность
Конец отчёта
---- CUETools DB Plugin V2.1.6
[CTDB TOCID: VenayRckkKPa12E9QGNHTC6Ke7w-] found
Submit result: VenayRckkKPa12E9QGNHTC6Ke7w- has been confirmed
Track | CTDB Status
  1   | (15/15) Accurately ripped
  2   | (15/15) Accurately ripped
  3   | (15/15) Accurately ripped
  4   | (15/15) Accurately ripped
  5   | (15/15) Accurately ripped
  6   | (15/15) Accurately ripped
  7   | (15/15) Accurately ripped
  8   | (15/15) Accurately ripped
  9   | (15/15) Accurately ripped
==== Контрольная сумма отчёта A4D12289E544D8ADEC363814B31830A30DDABB9300C33B5C412DF81BC61A833D ====
Код:
REM DATE 1996
REM DISCID 7B0BA309
REM COMMENT "ExactAudioCopy v1.3"
PERFORMER "Steril"
TITLE "Venus Trap"
REM COMPOSER ""
FILE "Steril - Venus Trap.flac" WAVE
  TRACK 01 AUDIO
    TITLE "Connected (Rage 1)"
    PERFORMER "Steril"
    REM COMPOSER ""
    INDEX 00 00:00:00
    INDEX 01 00:00:32
  TRACK 02 AUDIO
    TITLE "Shame"
    PERFORMER "Steril"
    REM COMPOSER ""
    INDEX 00 04:06:72
    INDEX 01 04:07:57
  TRACK 03 AUDIO
    TITLE "Zap!"
    PERFORMER "Steril"
    REM COMPOSER ""
    INDEX 00 10:51:22
    INDEX 01 10:52:07
  TRACK 04 AUDIO
    TITLE "Deep"
    PERFORMER "Steril"
    REM COMPOSER ""
    INDEX 00 16:23:52
    INDEX 01 16:24:45
  TRACK 05 AUDIO
    TITLE "I Believe"
    PERFORMER "Steril"
    REM COMPOSER ""
    INDEX 00 20:28:25
    INDEX 01 20:28:70
  TRACK 06 AUDIO
    TITLE "It Should Be Real"
    PERFORMER "Steril"
    REM COMPOSER ""
    INDEX 00 24:09:55
    INDEX 01 24:10:32
  TRACK 07 AUDIO
    TITLE "The Rain"
    PERFORMER "Steril"
    REM COMPOSER ""
    INDEX 00 29:10:70
    INDEX 01 29:11:45
  TRACK 08 AUDIO
    TITLE "Connected (Rage 2)"
    PERFORMER "Steril"
    REM COMPOSER ""
    INDEX 00 34:44:50
    INDEX 01 34:45:32
  TRACK 09 AUDIO
    TITLE "Your Religion"
    PERFORMER "Steril"
    REM COMPOSER ""
    INDEX 00 42:05:65
    INDEX 01 42:06:57
Код:
foobar2000 1.4 / Замер динамического диапазона (DR) 1.1.1
Дата отчёта:  2020-03-07 20:39:45
--------------------------------------------------------------------------------
Анализ:   Steril / Venus Trap
--------------------------------------------------------------------------------
DR         РџРёРєРё         RMS           РџСЂРѕРґРѕР»Р¶РёС‚ельность трека
--------------------------------------------------------------------------------
DR8        0.00 РґР‘   -10.01 РґР‘      4:07 01-Connected (Rage 1)
DR11       0.00 РґР‘   -12.47 РґР‘      6:44 02-Shame
DR8        0.00 РґР‘   -10.91 РґР‘      5:33 03-Zap!
DR9        0.00 РґР‘   -10.39 РґР‘      4:04 04-Deep
DR9        0.00 РґР‘   -11.29 РґР‘      3:41 05-I Believe
DR8        0.00 РґР‘   -11.23 РґР‘      5:01 06-It Should Be Real
DR9        0.00 РґР‘   -10.40 РґР‘      5:34 07-The Rain
DR9        0.00 РґР‘   -11.57 РґР‘      7:21 08-Connected (Rage 2)
DR8        0.00 РґР‘   -10.35 РґР‘      7:33 09-Your Religion
--------------------------------------------------------------------------------
Количество треков: 9
Реальные значения DR: DR9
Частота:   44100 Гц
Каналов:   2
Разрядность:   16
Битрейт:   1411 РєР±РёС‚/СЃ
Кодек:   PCM
==============================================================
Правила, инструкции, FAQ!!!
Торрент  Добавлен [26 июн 2020, 19:45] Скачать торрент Магнет ссылка
Скачать торрент
[ Размер 14.43 КБ / Просмотров 12 ]

Статус
Проверен 
 
Размер  334.96 МБ
Приватный: Нет (DHT включён)
.torrent скачан  0
 


     Отправить личное сообщение
   
Страница 1 из 1
Показать сообщения за:  Поле сортировки  
Начать новую тему Ответить на тему


Сейчас этот форум просматривают: нет зарегистрированных пользователей и гости: 0


Вы не можете начинать темы
Вы не можете отвечать на сообщения
Вы не можете редактировать свои сообщения
Вы не можете удалять свои сообщения
Вы не можете добавлять вложения

Перейти:  
cron