Начать новую тему Ответить на тему
Статистика раздачи
Размер: 440.87 МБ | Добавлен: 26 июн 2020, 17:33 | Скачали: 0
Сидеров: 0  [0 байт/сек]    Личеров: 0  [0 байт/сек]
Пред. тема | След. тема 

Автор
Сообщение

СообщениеДобавлено: 26 июн 2020, 17:33 

Ответить с цитатой 

Ravenous - No Retreat And No Surrender
Жанр: Electro, Synth-pop, Industrial
Год выпуска диска: 1999
Производитель диска: Германия
Аудио кодек: APE
Тип рипа: image+.cue
Битрейт аудио: lossless
Продолжительность: 01:05:49
Трэклист:
01.Abandon All Hope
02.Free Corky
03.Underwater Garden
04.Dark Angels
05.Leaving Paradise
06.Luck Is Chance
07.In My Dreams
08.Misery
09.Traveller
10.Rain
11.2nd Chance
12.The Voices You Hear (Split And Polish Mix)
13.Timeless (Remixed By Max Rebo)
14.Eine Mark Für Charly
Код:
 Exact Audio Copy V0.99 prebeta 5 from 4. May 2009
Отчёт EAC об извлечении, выполненном 27. июля 2009, 21:02
Ravenous / No Retreat And No Surrender
Дисковод: Optiarc DVD RW AD-7201S   Adapter: 1  ID: 1
Режим чтения                 : Достоверность
Использование точного потока : Да
Отключение кэша аудио        : Да
Использование указателей C2  : Нет
Коррекция смещения при чтении                     : 48
Способность читать области Lead-in и Lead-out     : Нет
Заполнение пропущенных сэмплов тишиной            : Да
Удаление блоков с тишиной в начале и конце        : Нет
При вычислениях CRC использовались нулевые сэмплы : Да
Интерфейс                                         : Установленный внешний
ASPI-интерфейс
Выходной формат : Внутренние WAV-операции
Формат сэмплов  : 44.100 Гц; 16 бит; стерео
TOC извлечённого CD
     Трек |   Старт  | Длительность | Начальный сектор | Конечный сектор
    ---------------------------------------------------------------------
       1  |  0:00.00 |    4:45.28   |           0      |      21402
       2  |  4:45.28 |    4:13.73   |       21403      |      40450
       3  |  8:59.26 |    5:54.60   |       40451      |      67060
       4  | 14:54.11 |    4:41.67   |       67061      |      88202
       5  | 19:36.03 |    4:47.64   |       88203      |     109791
       6  | 24:23.67 |    5:38.48   |      109792      |     135189
       7  | 30:02.40 |    4:36.50   |      135190      |     155939
       8  | 34:39.15 |    4:12.17   |      155940      |     174856
       9  | 38:51.32 |    4:38.43   |      174857      |     195749
      10  | 43:30.00 |    5:12.63   |      195750      |     219212
      11  | 48:42.63 |    3:15.27   |      219213      |     233864
      12  | 51:58.15 |    4:56.74   |      233865      |     256138
      13  | 56:55.14 |    4:16.42   |      256139      |     275380
      14  | 61:11.56 |    4:37.08   |      275381      |     296163
Характеристики диапазона извлечения и сообщения об ошибках
Выбранный диапазон
     Имя файла D:\Documents and Settings\Rodexx\Рабочий стол\Ravenous - No
Retreat And No Surrender\Ravenous - No Retreat And No Surrender.wav
     Пиковый уровень 100.0 %
     Качество диапазона 100.0 %
     CRC теста F17AC0D3
     CRC копии F17AC0D3
     Копирование... OK
Ошибок не произошло
Конец отчёта
Label: Zoth Ommog
Catalog#: CD ZOT 209
Format: CD, Album
Country: Germany
Released: Apr 1999
Genre: Electronic
Style: Electro, Synth-pop, Industrial

Правила, инструкции, FAQ!!!
Торрент  Добавлен [26 июн 2020, 17:33] Скачать торрент Магнет ссылка
Скачать торрент
[ Размер 18.01 КБ / Просмотров 11 ]

Статус
Проверен 
 
Размер  440.87 МБ
Приватный: Нет (DHT включён)
.torrent скачан  0
 


     Отправить личное сообщение
   
Страница 1 из 1
Показать сообщения за:  Поле сортировки  
Начать новую тему Ответить на тему


Сейчас этот форум просматривают: нет зарегистрированных пользователей и гости: 0


Вы не можете начинать темы
Вы не можете отвечать на сообщения
Вы не можете редактировать свои сообщения
Вы не можете удалять свои сообщения
Вы не можете добавлять вложения

Перейти:  
cron