Начать новую тему Ответить на тему
Статистика раздачи
Размер: 546.5 МБ | Добавлен: 26 июн 2020, 19:46 | Скачали: 0
Сидеров: 0  [0 байт/сек]    Личеров: 0  [0 байт/сек]
Пред. тема | След. тема 

Автор
Сообщение

СообщениеДобавлено: 26 июн 2020, 19:46 

Ответить с цитатой 

Z Prochek - Intravenous
Жанр: Electro, Synth-Pop, Industrial
Год выпуска диска: 2002
Производитель диска: Канада
Аудио кодек: FLAC
Тип рипа: image+.cue
Битрейт аудио: lossless
Продолжительность: 71:26.35
Трэклист:
01. One Last Time
02. Point Blank
03. Sun Doesn't Die
04. In My Mind (album version)
05. Inflamed
06. Travel 2 Berlin
07. Memories
08. Heal
09. Claim
10. The One
11. Desperare
12. Here With You
13. Words
14. In My Mind
15. In My Mind (Colony 5 remix)
16. In My Mind (Epsilon Minus remix)
17. In My Mind (Pride and Fall remix)
Exact Audio Copy V0.99 prebeta 4 from 23. January 2008
Отчёт EAC об извлечении, выполненном 1. февраля 2009, 13:59
Z Prochek / Intravenous
Дисковод: PIONEER DVD-RW DVR-111D Adapter: 0 ID: 0
Режим чтения : Достоверность
Использование точного потока : Да
Отключение кэша аудио : Да
Использование указателей C2 : Нет
Коррекция смещения при чтении : 48
Способность читать области Lead-in и Lead-out : Нет
Заполнение пропущенных сэмплов тишиной : Да
Удаление блоков с тишиной в начале и конце : Нет
При вычислениях CRC использовались нулевые сэмплы : Да
Интерфейс : Установленный внешний ASPI-интерфейс
Выходной формат : Пользовательский кодировщик
Выбранный битрейт : 1024 kBit/s
Качество : Высокий
Добавление ID3-тэга : Нет
Утилита сжатия : C:\Program Files\Exact Audio Copy\FLAC\FLAC.EXE
Дополнительные параметры : -8 -V -T "ARTIST=%a" -T "TITLE=%t" -T "ALBUM=%g" -T "DATE=%y" -T "TRACKNUMBER=%n" -T "GENRE=%m" -T "COMMENT=%e" %s -o %d
TOC извлечённого CD
Трек | Старт | Длительность | Начальный сектор | Конечный сектор
---------------------------------------------------------------------
1 | 0:00.00 | 4:46.22 | 0 | 21471
2 | 4:46.22 | 4:53.72 | 21472 | 43518
3 | 9:40.19 | 3:52.47 | 43519 | 60965
4 | 13:32.66 | 4:36.31 | 60966 | 81696
5 | 18:09.22 | 4:29.61 | 81697 | 101932
6 | 22:39.08 | 4:58.66 | 101933 | 124348
7 | 27:37.74 | 5:08.21 | 124349 | 147469
8 | 32:46.20 | 4:17.24 | 147470 | 166768
9 | 37:03.44 | 3:11.12 | 166769 | 181105
10 | 40:14.56 | 4:15.00 | 181106 | 200230
11 | 44:29.56 | 4:01.37 | 200231 | 218342
12 | 48:31.18 | 4:53.53 | 218343 | 240370
13 | 53:24.71 | 4:22.68 | 240371 | 260088
14 | 57:47.64 | 3:57.36 | 260089 | 277899
15 | 61:45.25 | 4:38.69 | 277900 | 298818
16 | 66:24.19 | 5:02.16 | 298819 | 321484
17 | 71:26.35 | 2:57.67 | 321485 | 334826
Характеристики диапазона извлечения и сообщения об ошибках
Выбранный диапазон
Имя файла C:\Documents and Settings\Admin.COMPUTER-535839\Рабочий стол\Z Prochek - Intravenous [2002]\Z Prochek - Intravenous.wav
Пиковый уровень 100.0 %
Качество диапазона 100.0 %
CRC теста 7B2E64F4
CRC копии 7B2E64F4
Копирование... OK
Ошибок не произошло
AccurateRip: сводка
Трек 1 нет в базе данных
Трек 2 нет в базе данных
Трек 3 нет в базе данных
Трек 4 нет в базе данных
Трек 5 нет в базе данных
Трек 6 нет в базе данных
Трек 7 нет в базе данных
Трек 8 нет в базе данных
Трек 9 нет в базе данных
Трек 10 нет в базе данных
Трек 11 нет в базе данных
Трек 12 нет в базе данных
Трек 13 нет в базе данных
Трек 14 нет в базе данных
Трек 15 нет в базе данных
Трек 16 нет в базе данных
Трек 17 нет в базе данных
Ни одного трека нет в базе AccurateRip
Конец отчёта
AUDIOCHECKER v2.0 beta (build 457) - by Dester - opdester@freemail.hu
~~~~~~~~~~~~~~~~~~~~~~~~~~~~~~~~~~
-=== DO NOT EDIT THIS FILE! ===-
Path: ...\Z Prochek - Intravenous [2002]
1 -=- Z Prochek - Intravenous.flac -=- CDDA (100%)
53825268
Доп. информация: Z Prochek — шведский дуэт, чьи композиции стали хитами на танцполах всего мира в огромном количестве клубов, играющих жесткую электронную музыку. Продолжая традиции электронного саунда Covenant и Assemblage 23, проект включает в свое звучание и более жесткие индустриальные элементы. Будучи естественной живой реакцией на поток стандартного future pop и EBM, выпускающегося сегодня, Z Prochek взял лучшее из обоих миров, соединив теплые гармонии с холодным дисторшном, призрачные клавиши с индустриальным обрамлением и скрепив все это танцевальным битом. Их композиции скроены особенным образом, выглядя на своем месте и в машине, и на кухне, и в постели, и в клубе. Это узнаваемая электронная музыка, однако со своей особенной изюминкой внутри.
Источник http://www.industrialmusic.ru/docs/announcements/_/_/news-163.htm
Правила, инструкции, FAQ!!!
Торрент  Добавлен [26 июн 2020, 19:46] Скачать торрент Магнет ссылка
Скачать торрент
[ Размер 11.36 КБ / Просмотров 10 ]

Статус
Проверен 
 
Размер  546.5 МБ
Приватный: Нет (DHT включён)
.torrent скачан  0
 


     Отправить личное сообщение
   
Страница 1 из 1
Показать сообщения за:  Поле сортировки  
Начать новую тему Ответить на тему


Сейчас этот форум просматривают: нет зарегистрированных пользователей и гости: 0


Вы не можете начинать темы
Вы не можете отвечать на сообщения
Вы не можете редактировать свои сообщения
Вы не можете удалять свои сообщения
Вы не можете добавлять вложения

Перейти:  
cron