Начать новую тему Ответить на тему
Статистика раздачи
Размер: 447.46 МБ | Добавлен: 26 июн 2020, 20:04 | Скачали: 0
Сидеров: 0  [0 байт/сек]    Личеров: 0  [0 байт/сек]
Пред. тема | След. тема 

Автор
Сообщение

СообщениеДобавлено: 26 июн 2020, 20:04 

Ответить с цитатой 

Informatik - Nymphomatik
Жанр: Electro, Synth-pop, Industrial
Год выпуска диска: 2002
Производитель диска: US
Аудио кодек: FLAC
Тип рипа: image+.cue
Битрейт аудио: lossless
Трэклист:
1 Flesh Menagerie (6:10)
2 Hopeless (5:53)
3 Perfect Stranger (6:41)
4 Physical Education (6:13)
5 Over (5:49)
6 Built For Pleasure (5:27)
7 A Matter Of Time (7:20)
8 Oblivion V2 (6:04)
9 96 Degrees (3:19)
Electronics [Sound Design] - Michael White
10 Perfect Stranger (Robot Mix) (6:39)
Remix - Negative Format
11 Physical Education (Day Job Mix) (5:01)
Remix - Stromkern
Exact Audio Copy V0.99 prebeta 4 from 23. January 2008
EAC extraction logfile from 11. September 2008, 23:47
Informatik / Nymphomatik
Used drive : _NEC DVD_RW ND-4551A Adapter: 1 ID: 0
Read mode : Secure
Utilize accurate stream : Yes
Defeat audio cache : Yes
Make use of C2 pointers : No
Read offset correction : 48
Overread into Lead-In and Lead-Out : No
Fill up missing offset samples with silence : Yes
Delete leading and trailing silent blocks : No
Null samples used in CRC calculations : Yes
Used interface : Installed external ASPI interface
Used output format : User Defined Encoder
Selected bitrate : 1024 kBit/s
Quality : High
Add ID3 tag : No
Command line compressor : C:\Program Files\FLAC\flac.exe
Additional command line options : -T "artist=%a" -T "title=%t" -T "album=%g" -T "date=%y" -T "tracknumber=%n" -T "genre=%m" -5 %s
TOC of the extracted CD
Track | Start | Length | Start sector | End sector
---------------------------------------------------------
1 | 0:00.00 | 6:10.24 | 0 | 27773
2 | 6:10.24 | 5:53.38 | 27774 | 54286
3 | 12:03.62 | 6:41.00 | 54287 | 84361
4 | 18:44.62 | 6:13.52 | 84362 | 112388
5 | 24:58.39 | 5:49.22 | 112389 | 138585
6 | 30:47.61 | 5:27.50 | 138586 | 163160
7 | 36:15.36 | 7:20.55 | 163161 | 196215
8 | 43:36.16 | 6:04.61 | 196216 | 223576
9 | 49:41.02 | 3:19.19 | 223577 | 238520
10 | 53:00.21 | 6:39.10 | 238521 | 268455
11 | 59:39.31 | 5:01.34 | 268456 | 291064
Range status and errors
Selected range
Filename C:\My Downloads\Informatik - Nymphomatik.wav
Peak level 97.7 %
Range quality 99.9 %
Copy CRC DC7A7BF3
Copy OK
No errors occurred
AccurateRip summary
Track 1 accurately ripped (confidence 6) [6A3AB75F]
Track 2 accurately ripped (confidence 6) [08C8CBBF]
Track 3 accurately ripped (confidence 6) [676F7886]
Track 4 accurately ripped (confidence 6) [0CB25755]
Track 5 accurately ripped (confidence 6) [CA3B11E1]
Track 6 accurately ripped (confidence 6) [AFC0D359]
Track 7 accurately ripped (confidence 6) [DC2E4139]
Track 8 accurately ripped (confidence 6) [AC79D583]
Track 9 accurately ripped (confidence 5) [B64AD0E4]
Track 10 accurately ripped (confidence 5) [21CD8C84]
Track 11 accurately ripped (confidence 5) [698054D3]
All tracks accurately ripped
End of status report
Правила, инструкции, FAQ!!!
Торрент  Добавлен [26 июн 2020, 20:04] Скачать торрент Магнет ссылка
Скачать торрент
[ Размер 18.18 КБ / Просмотров 10 ]

Статус
Проверен 
 
Размер  447.46 МБ
Приватный: Нет (DHT включён)
.torrent скачан  0
 


     Отправить личное сообщение
   
Страница 1 из 1
Показать сообщения за:  Поле сортировки  
Начать новую тему Ответить на тему


Сейчас этот форум просматривают: нет зарегистрированных пользователей и гости: 0


Вы не можете начинать темы
Вы не можете отвечать на сообщения
Вы не можете редактировать свои сообщения
Вы не можете удалять свои сообщения
Вы не можете добавлять вложения

Перейти:  
cron