Начать новую тему Ответить на тему
Статистика раздачи
Размер: 333.63 МБ | Добавлен: 26 июн 2020, 17:21 | Скачали: 0
Сидеров: 0  [0 байт/сек]    Личеров: 0  [0 байт/сек]
Пред. тема | След. тема 

Автор
Сообщение

СообщениеДобавлено: 26 июн 2020, 17:21 

Ответить с цитатой 

Funker Vogt ‎ / Tragic Hero [First Press/ Zoth Ommog/ Maxi-Single]
Жанр: Electro, Synth-pop, Industrial
Страна-производитель диска: Germany
Год издания: 1998
Издатель (лейбл): Zoth Ommog
Номер по каталогу: CD ZOT 222
Страна: Germany
Аудиокодек: FLAC (*.flac)
Тип рипа: image+.cue
Битрейт аудио: lossless
Продолжительность: 00:41:05
Источник (релизер): Личный СД
Наличие сканов в содержимом раздачи: да
Треклист:
1 . Tragic Hero (Haat Klapp Mix) 5:18
2 . Tragic Hero (APB Remix) 7:30
3 . Tragic Hero (Blind Vision Remix) 4:17
4 . Spread Your Legs! 4:44
5 . Tragic Hero (Covenant Remix) 6:02
6 . The International Killer (Less Vox Mix) 5:59
7 . The Voices Of The Dead (Evils Toy Remix) 3:48
8 . Spread Your Legs! (F... Mix) 3:30
Код:
Exact Audio Copy V1.0 beta 3 from 29. August 2011
Отчёт EAC об извлечении, выполненном 15. сентября 2012, 0:17
Funker Vogt / Tragic Hero
Дисковод: Optiarc DVD RW AD-7201S   Adapter: 2  ID: 1
Режим чтения                 : Достоверность
Использование точного потока : Да
Отключение кэша аудио        : Да
Использование указателей C2  : Нет
Коррекция смещения при чтении                     : 48
Способность читать области Lead-in и Lead-out     : Нет
Заполнение пропущенных сэмплов тишиной            : Да
Удаление блоков с тишиной в начале и конце        : Нет
При вычислениях CRC использовались нулевые сэмплы : Да
Интерфейс                                         : Встроенный Win32-интерфейс для Win NT/2000
Выходной формат          : Пользовательский кодировщик
Выбранный битрейт        : 1024 kBit/s
Качество                 : Высокий
Добавление ID3-тега      : Нет
Утилита сжатия           : C:\Program Files\Exact Audio Copy\Flac\flac.exe
Дополнительные параметры : -V -8 -T "Date=%year%" -T "Genre=%genre%" %source%
TOC извлечённого CD
     Трек |   Старт  | Длительность | Начальный сектор | Конечный сектор
    ---------------------------------------------------------------------
       1  |  0:00.00 |    5:18.17   |           0      |      23866
       2  |  5:18.17 |    7:30.68   |       23867      |      57684
       3  | 12:49.10 |    4:13.51   |       57685      |      76710
       4  | 17:02.61 |    4:44.10   |       76711      |      98020
       5  | 21:46.71 |    6:02.61   |       98021      |     125231
       6  | 27:49.57 |    5:56.64   |      125232      |     151995
       7  | 33:46.46 |    3:46.71   |      151996      |     169016
       8  | 37:33.42 |    3:31.20   |      169017      |     184861
Характеристики диапазона извлечения и сообщения об ошибках
Выбранный диапазон
     Имя файла G:\Раздачи Rodexx\Funker Vogt ‎– Tragic Hero\Funker Vogt - Tragic Hero.wav
     Пиковый уровень 100.0 %
     Скорость извлечения 3.6 X
     Качество диапазона 100.0 %
     CRC теста 4065829C
     CRC копии 4065829C
     Копирование... OK
Ошибок не произошло
AccurateRip: сводка
Трек  1  : извлечено точно (доверие 5)  [54F1BCD6]  (AR v1)
Трек  2  : извлечено точно (доверие 5)  [FE0B0377]  (AR v1)
Трек  3  : извлечено точно (доверие 5)  [F4093DAD]  (AR v1)
Трек  4  : извлечено точно (доверие 5)  [F89AE757]  (AR v1)
Трек  5  : извлечено точно (доверие 5)  [18461686]  (AR v1)
Трек  6  : извлечено точно (доверие 4)  [BC23C63F]  (AR v1)
Трек  7  : извлечено точно (доверие 4)  [2EB5A0DE]  (AR v1)
Трек  8  : извлечено точно (доверие 4)  [91FA89A6]  (AR v1)
Все треки извлечены точно
Конец отчёта
==== Контрольная сумма отчёта B7AADF9F97EB95CD845396BDAB2CCD5B2F168F217EAB2F9C0DFB5F0E7AFEF56C ====
Правила, инструкции, FAQ!!!
Торрент  Добавлен [26 июн 2020, 17:21] Скачать торрент Магнет ссылка
Скачать торрент
[ Размер 13.94 КБ / Просмотров 9 ]

Статус
Проверен 
 
Размер  333.63 МБ
Приватный: Нет (DHT включён)
.torrent скачан  0
 


     Отправить личное сообщение
   
Страница 1 из 1
Показать сообщения за:  Поле сортировки  
Начать новую тему Ответить на тему


Сейчас этот форум просматривают: нет зарегистрированных пользователей и гости: 0


Вы не можете начинать темы
Вы не можете отвечать на сообщения
Вы не можете редактировать свои сообщения
Вы не можете удалять свои сообщения
Вы не можете добавлять вложения

Перейти:  
cron