Начать новую тему Ответить на тему
Статистика раздачи
Размер: 727.81 МБ | Добавлен: 26 июн 2020, 17:29 | Скачали: 0
Сидеров: 2  [0 байт/сек]    Личеров: 0  [0 байт/сек]
Пред. тема | След. тема 

Автор
Сообщение

СообщениеДобавлено: 26 июн 2020, 17:29 

Ответить с цитатой 

Funker Vogt / Survivor [2CD Limited Edition/ Enhanced]
Жанр: Electro, Synth-pop, Industrial
Страна-производитель диска: Germany
Год издания: 2002
Издатель (лейбл): Synthetic Symphony
Номер по каталогу: SPV 087-63480
Страна: Germany
Аудиокодек: FLAC (*.flac)
Тип рипа: image+.cue
Битрейт аудио: lossless
Продолжительность: 01:09:12 + 00:17:49
Источник (релизер): Личный СД
Наличие сканов в содержимом раздачи: да
Треклист:
CD ONE:
01. Date Of Expiration 6:07
02. This World 5:05
03. History 5:10
04. Obscure Pictures 5:05
05. Compulsions 5:36
06. Prisoners Of War 4:36
07. Final Thrill 4:41
08. Fallen Man 5:00
09. Stolen Thoughts 4:37
10. Lügner! 5:25
11. Faster Life 5:28
12. Red Queen 12:17
Bonus CD:
1. This World (Built For Wars) 5:43
2. Whenever A Child Dies 6:26
3. This World (Made Of Battlefields) 5:39
Код:
Exact Audio Copy V1.0 beta 3 from 29. August 2011
Отчёт EAC об извлечении, выполненном 15. сентября 2012, 14:40
Funker Vogt / Survivor
Дисковод: Optiarc DVD RW AD-7201S   Adapter: 2  ID: 1
Режим чтения                 : Достоверность
Использование точного потока : Да
Отключение кэша аудио        : Да
Использование указателей C2  : Нет
Коррекция смещения при чтении                     : 48
Способность читать области Lead-in и Lead-out     : Нет
Заполнение пропущенных сэмплов тишиной            : Да
Удаление блоков с тишиной в начале и конце        : Нет
При вычислениях CRC использовались нулевые сэмплы : Да
Интерфейс                                         : Встроенный Win32-интерфейс для Win NT/2000
Выходной формат          : Пользовательский кодировщик
Выбранный битрейт        : 1024 kBit/s
Качество                 : Высокий
Добавление ID3-тега      : Нет
Утилита сжатия           : C:\Program Files\Exact Audio Copy\Flac\flac.exe
Дополнительные параметры : -V -8 -T "Date=%year%" -T "Genre=%genre%" %source%
TOC извлечённого CD
     Трек |   Старт  | Длительность | Начальный сектор | Конечный сектор
    ---------------------------------------------------------------------
       1  |  0:00.00 |    6:06.66   |           0      |      27515
       2  |  6:06.66 |    5:05.74   |       27516      |      50464
       3  | 11:12.65 |    5:09.74   |       50465      |      73713
       4  | 16:22.64 |    5:04.56   |       73714      |      96569
       5  | 21:27.45 |    5:37.28   |       96570      |     121872
       6  | 27:04.73 |    4:38.37   |      121873      |     142759
       7  | 31:43.35 |    4:41.63   |      142760      |     163897
       8  | 36:25.23 |    5:00.20   |      163898      |     186417
       9  | 41:25.43 |    4:37.05   |      186418      |     207197
      10  | 46:02.48 |    5:24.55   |      207198      |     231552
      11  | 51:27.28 |    5:27.56   |      231553      |     256133
      12  | 56:55.09 |   12:17.44   |      256134      |     311452
Характеристики диапазона извлечения и сообщения об ошибках
Выбранный диапазон
     Имя файла G:\Раздачи Rodexx\Funker Vogt - Survivor\Funker Vogt - Survivor.wav
     Пиковый уровень 99.9 %
     Скорость извлечения 4.4 X
     Качество диапазона 100.0 %
     CRC теста A019121E
     CRC копии A019121E
     Копирование... OK
Ошибок не произошло
AccurateRip: сводка
Трек  1  : извлечено точно (доверие 2)  [B1A93C2F]  (AR v2)
Трек  2  : извлечено точно (доверие 2)  [B501EB5E]  (AR v2)
Трек  3  : извлечено точно (доверие 2)  [F9775F3B]  (AR v2)
Трек  4  : извлечено точно (доверие 2)  [81FD3797]  (AR v2)
Трек  5  : извлечено точно (доверие 2)  [63AA9F1C]  (AR v2)
Трек  6  : извлечено точно (доверие 2)  [CBF6D933]  (AR v2)
Трек  7  : извлечено точно (доверие 2)  [1E2A6559]  (AR v2)
Трек  8  : извлечено точно (доверие 2)  [D1FDB998]  (AR v2)
Трек  9  : извлечено точно (доверие 2)  [158486D9]  (AR v2)
Трек 10  : извлечено точно (доверие 2)  [9BBF6CCC]  (AR v2)
Трек 11  : извлечено точно (доверие 2)  [B402F2D3]  (AR v2)
Трек 12  : извлечено точно (доверие 2)  [D564B58C]  (AR v2)
Все треки извлечены точно
Конец отчёта
==== Контрольная сумма отчёта 2823F35751E894C45C76E1C459BE7D2707118FF22ECD0AAD27A906E3BB8BF3D5 ====
Код:
Exact Audio Copy V1.0 beta 3 from 29. August 2011
Отчёт EAC об извлечении, выполненном 15. сентября 2012, 14:58
Funker Vogt / Survivor Bonus CD
Дисковод: Optiarc DVD RW AD-7201S   Adapter: 2  ID: 1
Режим чтения                 : Достоверность
Использование точного потока : Да
Отключение кэша аудио        : Да
Использование указателей C2  : Нет
Коррекция смещения при чтении                     : 48
Способность читать области Lead-in и Lead-out     : Нет
Заполнение пропущенных сэмплов тишиной            : Да
Удаление блоков с тишиной в начале и конце        : Нет
При вычислениях CRC использовались нулевые сэмплы : Да
Интерфейс                                         : Встроенный Win32-интерфейс для Win NT/2000
Выходной формат          : Пользовательский кодировщик
Выбранный битрейт        : 1024 kBit/s
Качество                 : Высокий
Добавление ID3-тега      : Нет
Утилита сжатия           : C:\Program Files\Exact Audio Copy\Flac\flac.exe
Дополнительные параметры : -V -8 -T "Date=%year%" -T "Genre=%genre%" %source%
TOC извлечённого CD
     Трек |   Старт  | Длительность | Начальный сектор | Конечный сектор
    ---------------------------------------------------------------------
       1  |  0:00.00 |    5:43.11   |           0      |      25735
       2  |  5:43.11 |    6:26.25   |       25736      |      54710
       3  | 12:09.36 |    5:39.59   |       54711      |      80194
       4  | 20:21.20 |    7:10.68   |       91595      |     123912
Характеристики диапазона извлечения и сообщения об ошибках
Выбранный диапазон
     Имя файла G:\Раздачи Rodexx\Funker Vogt - Survivor\Funker Vogt - Survivor Bonus CD.wav
     Пиковый уровень 99.9 %
     Скорость извлечения 3.0 X
     Качество диапазона 100.0 %
     CRC теста C3D94F9B
     CRC копии C3D94F9B
     Копирование... OK
Ошибок не произошло
AccurateRip: сводка
Трек  1  : извлечено точно (доверие 2)  [39F5DEBA]  (AR v2)
Трек  2  : извлечено точно (доверие 2)  [47828925]  (AR v2)
Трек  3  : извлечено точно (доверие 9)  [4C70BAF0]  (AR v1)
Все треки извлечены точно
Конец отчёта
==== Контрольная сумма отчёта 752758C8C7325803A51D2FA76F52EBBCA86DC431428DB2148991152BA81E74BC ====
Правила, инструкции, FAQ!!!
Торрент  Добавлен [26 июн 2020, 17:29] Скачать торрент Магнет ссылка
Скачать торрент
[ Размер 15.53 КБ / Просмотров 12 ]

Статус
Проверен 
 
Размер  727.81 МБ
Приватный: Нет (DHT включён)
.torrent скачан  0
 


     Отправить личное сообщение
   
Страница 1 из 1
Показать сообщения за:  Поле сортировки  
Начать новую тему Ответить на тему


Сейчас этот форум просматривают: нет зарегистрированных пользователей и гости: 0


Вы не можете начинать темы
Вы не можете отвечать на сообщения
Вы не можете редактировать свои сообщения
Вы не можете удалять свои сообщения
Вы не можете добавлять вложения

Перейти:  
cron