Начать новую тему Ответить на тему
Статистика раздачи
Размер: 339.04 МБ | Добавлен: 26 июн 2020, 17:33 | Скачали: 0
Сидеров: 0  [0 байт/сек]    Личеров: 0  [0 байт/сек]
Пред. тема | След. тема 

Автор
Сообщение

СообщениеДобавлено: 26 июн 2020, 17:33 

Ответить с цитатой 

Battery - Aftermath
Жанр: Electro, Synth-pop, Industrial
Год выпуска диска: 1998
Производитель диска: Germany
Аудио кодек: FLAC
Тип рипа: tracks+.cue
Битрейт аудио: lossless
Продолжительность: 1:03:54
Источник: отвалившаяся раздача от niceolum
1 Aftermath (3:51)
2 Betrayal 3.0 (4:05)
3 This Much 2.0 (4:03)
4 Pity (5:27)
5 Theme 3.0 (4:47)
6 Strike (3:51)
7 Never Left (5:06)
8 Last Of August (5:20)
9 Wist (5:46)
10 All Cats Are Grey (18:44)
Written By - The Cure
11 Aftermath (Sobu Remix) (2:51)
Remix - Boom chr Paige, Society Burning
Доп. информация:
Label: COP International
Catalog#: COP CD044
Credits: Mastered By [Digitally] - Da5id Din; Music By - Battery (tracks: 1 to 9, 11) , Dropstar (tracks: 4); Producer - Battery; Producer [Production Assistance] - Curtis Gamill; Written-By, Arranged By, Recorded By - Battery
Notes: Written, arranged, recorded and produced at The Pit, Oakland, CA - 04.98-11.98. Digitally mastered at Corrosive.
Код:
Exact Audio Copy V0.99 prebeta 4 from 23. January 2008
EAC extraction logfile from 21. February 2009, 1:55
Battery / Aftermath
Used drive  : TEAC    CD-W540E   Adapter: 3  ID: 0
Read mode               : Secure
Utilize accurate stream : Yes
Defeat audio cache      : Yes
Make use of C2 pointers : No
Read offset correction                      : 686
Overread into Lead-In and Lead-Out          : No
Fill up missing offset samples with silence : Yes
Delete leading and trailing silent blocks   : No
Null samples used in CRC calculations       : Yes
Used interface                              : Installed external ASPI interface
Gap handling                                : Appended to previous track
Used output format              : User Defined Encoder
Selected bitrate                : 1024 kBit/s
Quality                         : High
Add ID3 tag                     : No
Command line compressor         : D:\Programs\Tools\_Exact Audio Copy\FLAC\FLAC.EXE
Additional command line options : -8 -V -T "ARTIST=%a" -T "TITLE=%t" -T "ALBUM=%g" -T "DATE=%y" -T "TRACKNUMBER=%n" -T "GENRE=%m" -T "COMMENT=%e" %s -o %d
TOC of the extracted CD
     Track |   Start  |  Length  | Start sector | End sector
    ---------------------------------------------------------
        1  |  0:00.00 |  3:51.01 |         0    |    17325
        2  |  3:51.01 |  4:05.05 |     17326    |    35705
        3  |  7:56.06 |  4:03.37 |     35706    |    53967
        4  | 11:59.43 |  5:27.10 |     53968    |    78502
        5  | 17:26.53 |  4:47.15 |     78503    |   100042
        6  | 22:13.68 |  3:50.74 |    100043    |   117366
        7  | 26:04.67 |  5:06.63 |    117367    |   140379
        8  | 31:11.55 |  5:20.32 |    140380    |   164411
        9  | 36:32.12 |  5:46.23 |    164412    |   190384
       10  | 42:18.35 | 18:44.11 |    190385    |   274695
       11  | 61:02.46 |  2:51.33 |    274696    |   287553
Track  1
     Filename G:\EAC Temporare\01 Aftermath.wav
     Pre-gap length  0:00:02.00
     Peak level 96.6 %
     Track quality 100.0 %
     Test CRC 28CC1FA6
     Copy CRC 28CC1FA6
     Accurately ripped (confidence 2)  [749F63D8]
     Copy OK
Track  2
     Filename G:\EAC Temporare\02 Betrayal 3.0.wav
     Peak level 96.6 %
     Track quality 99.9 %
     Test CRC 69838370
     Copy CRC 69838370
     Accurately ripped (confidence 2)  [4C6FAA30]
     Copy OK
Track  3
     Filename G:\EAC Temporare\03 This Much 2.0.wav
     Pre-gap length  0:00:03.00
     Peak level 96.6 %
     Track quality 100.0 %
     Test CRC 3FE88722
     Copy CRC 3FE88722
     Accurately ripped (confidence 2)  [1A046B3D]
     Copy OK
Track  4
     Filename G:\EAC Temporare\04 Pity.wav
     Pre-gap length  0:00:00.38
     Peak level 96.6 %
     Track quality 100.0 %
     Test CRC B5A81DC0
     Copy CRC B5A81DC0
     Accurately ripped (confidence 2)  [27DDBF48]
     Copy OK
Track  5
     Filename G:\EAC Temporare\05 Theme 3.0.wav
     Pre-gap length  0:01:04.00
     Peak level 96.6 %
     Track quality 99.9 %
     Test CRC 10AD1752
     Copy CRC 10AD1752
     Accurately ripped (confidence 2)  [CCDF8E95]
     Copy OK
Track  6
     Filename G:\EAC Temporare\06 Strike.wav
     Pre-gap length  0:00:01.59
     Peak level 96.6 %
     Track quality 100.0 %
     Test CRC 3ECB8122
     Copy CRC 3ECB8122
     Accurately ripped (confidence 2)  [8169D9B0]
     Copy OK
Track  7
     Filename G:\EAC Temporare\07 Never Left.wav
     Pre-gap length  0:00:04.00
     Peak level 96.6 %
     Track quality 99.9 %
     Test CRC A4E41825
     Copy CRC A4E41825
     Accurately ripped (confidence 2)  [49661F54]
     Copy OK
Track  8
     Filename G:\EAC Temporare\08 Last Of August.wav
     Pre-gap length  0:00:04.00
     Peak level 96.6 %
     Track quality 99.9 %
     Test CRC 941D8579
     Copy CRC 941D8579
     Accurately ripped (confidence 2)  [BA95F7FB]
     Copy OK
Track  9
     Filename G:\EAC Temporare\09 Wist.wav
     Pre-gap length  0:00:04.00
     Peak level 96.6 %
     Track quality 100.0 %
     Test CRC 17043A31
     Copy CRC 17043A31
     Accurately ripped (confidence 2)  [5B639B0F]
     Copy OK
Track 10
     Filename G:\EAC Temporare\10 All Cats Are Grey.wav
     Peak level 96.6 %
     Track quality 100.0 %
     Test CRC 99289E68
     Copy CRC 99289E68
     Accurately ripped (confidence 2)  [F756CE98]
     Copy OK
Track 11
     Filename G:\EAC Temporare\11 Aftermath (Sobu Remix).wav
     Pre-gap length  0:13:52.00
     Peak level 96.6 %
     Track quality 99.8 %
     Test CRC F7E9F620
     Copy CRC F7E9F620
     Accurately ripped (confidence 2)  [65EBA960]
     Copy OK
All tracks accurately ripped
No errors occurred
End of status report
Код:
REM GENRE "Electro, Synth-pop, Industrial"
REM DATE 1998
REM DISCID 930EFA0B
REM COMMENT "ExactAudioCopy v0.99pb4"
PERFORMER "Battery"
TITLE "Aftermath"
FILE "01 Aftermath.wav" WAVE
  TRACK 01 AUDIO
    TITLE "Aftermath"
    PERFORMER "Battery"
    INDEX 01 00:00:00
FILE "02 Betrayal 3.0.wav" WAVE
  TRACK 02 AUDIO
    TITLE "Betrayal 3.0"
    PERFORMER "Battery"
    INDEX 01 00:00:00
  TRACK 03 AUDIO
    TITLE "This Much 2.0"
    PERFORMER "Battery"
    INDEX 00 04:02:05
FILE "03 This Much 2.0.wav" WAVE
    INDEX 01 00:00:00
  TRACK 04 AUDIO
    TITLE "Pity"
    PERFORMER "Battery"
    INDEX 00 04:02:74
FILE "04 Pity.wav" WAVE
    INDEX 01 00:00:00
  TRACK 05 AUDIO
    TITLE "Theme 3.0"
    PERFORMER "Battery"
    INDEX 00 04:23:10
FILE "05 Theme 3.0.wav" WAVE
    INDEX 01 00:00:00
  TRACK 06 AUDIO
    TITLE "Strike"
    PERFORMER "Battery"
    INDEX 00 04:45:31
FILE "06 Strike.wav" WAVE
    INDEX 01 00:00:00
  TRACK 07 AUDIO
    TITLE "Never Left"
    PERFORMER "Battery"
    INDEX 00 03:46:74
FILE "07 Never Left.wav" WAVE
    INDEX 01 00:00:00
  TRACK 08 AUDIO
    TITLE "Last Of August"
    PERFORMER "Battery"
    INDEX 00 05:02:63
FILE "08 Last Of August.wav" WAVE
    INDEX 01 00:00:00
  TRACK 09 AUDIO
    TITLE "Wist"
    PERFORMER "Battery"
    INDEX 00 05:16:32
FILE "09 Wist.wav" WAVE
    INDEX 01 00:00:00
FILE "10 All Cats Are Grey.wav" WAVE
  TRACK 10 AUDIO
    TITLE "All Cats Are Grey"
    PERFORMER "Battery"
    INDEX 01 00:00:00
  TRACK 11 AUDIO
    TITLE "Aftermath (Sobu Remix)"
    PERFORMER "Battery"
    INDEX 00 04:52:11
FILE "11 Aftermath (Sobu Remix).wav" WAVE
    INDEX 01 00:00:00
Правила, инструкции, FAQ!!!
Торрент  Добавлен [26 июн 2020, 17:33] Скачать торрент Магнет ссылка
Скачать торрент
[ Размер 14.9 КБ / Просмотров 1 ]

Статус
Проверен 
 
Размер  339.04 МБ
Приватный: Нет (DHT включён)
.torrent скачан  0
 


     Отправить личное сообщение
   
Страница 1 из 1
Показать сообщения за:  Поле сортировки  
Начать новую тему Ответить на тему


Сейчас этот форум просматривают: нет зарегистрированных пользователей и гости: 0


Вы не можете начинать темы
Вы не можете отвечать на сообщения
Вы не можете редактировать свои сообщения
Вы не можете удалять свои сообщения
Вы не можете добавлять вложения

Перейти:  
cron