Начать новую тему Ответить на тему
Статистика раздачи
Размер: 264.46 МБ | Добавлен: 26 июн 2020, 20:33 | Скачали: 0
Сидеров: 0  [0 байт/сек]    Личеров: 0  [0 байт/сек]
Пред. тема | След. тема 

Автор
Сообщение

СообщениеДобавлено: 26 июн 2020, 20:33 

Ответить с цитатой 

We. - Departure
Жанр: Electro, Synth-Pop, EBM
Год выпуска диска: 2006
Производитель диска: Germany
Аудио кодек: FLAC
Тип рипа: tracks+.cue
Битрейт аудио: lossless
Продолжительность: 44:31
Трэклист:
1 Emergency 4:31
2 Operate 3:20
3 Case Closed 3:32
4 You Didn't Hear Me 3:05
5 Interruptions 3:37
6 Strangers 3:09
7 Nothing Comes For Free 5:01
8 Different Minds 3:13
9 Reset 3:48
10 Game On 4:02
11 Recondition 3:30
12 Es Geht Vorbei 3:39
Источник: What.CD
Автор раздачи:BunkerGhost
Exact Audio Copy V0.99 prebeta 4 from 23. January 2008
EAC extraction logfile from 13. September 2009, 15:31
We. / Departure
Used drive : _NEC DVD_RW ND-3520AW Adapter: 1 ID: 0
Read mode : Secure
Utilize accurate stream : Yes
Defeat audio cache : Yes
Make use of C2 pointers : No
Read offset correction : 48
Overread into Lead-In and Lead-Out : No
Fill up missing offset samples with silence : Yes
Delete leading and trailing silent blocks : No
Null samples used in CRC calculations : Yes
Used interface : Native Win32 interface for Win NT & 2000
Gap handling : Not detected, thus appended to previous track
Used output format : User Defined Encoder
Selected bitrate : 128 kBit/s
Quality : High
Add ID3 tag : No
Command line compressor : C:\Program Files\FLAC\flac.exe
Additional command line options : -V -8 -T "artist=%a" -T "title=%t" -T "album=%g" -T "date=%y" -T "tracknumber=%n" %s
TOC of the extracted CD
Track | Start | Length | Start sector | End sector
---------------------------------------------------------
1 | 0:00.00 | 4:31.39 | 0 | 20363
2 | 4:31.39 | 3:20.33 | 20364 | 35396
3 | 7:51.72 | 3:32.04 | 35397 | 51300
4 | 11:24.01 | 3:05.41 | 51301 | 65216
5 | 14:29.42 | 3:37.04 | 65217 | 81495
6 | 18:06.46 | 3:09.25 | 81496 | 95695
7 | 21:15.71 | 5:01.33 | 95696 | 118303
8 | 26:17.29 | 3:12.67 | 118304 | 132770
9 | 29:30.21 | 3:47.74 | 132771 | 149869
10 | 33:18.20 | 4:02.45 | 149870 | 168064
11 | 37:20.65 | 3:30.32 | 168065 | 183846
12 | 40:51.22 | 3:39.33 | 183847 | 200304
Track 1
Filename C:\Temp\FLAC\01. Emergency.wav
Peak level 96.6 %
Track quality 100.0 %
Copy CRC AFFF5C40
Copy OK
Track 2
Filename C:\Temp\FLAC\02. Operate.wav
Peak level 96.6 %
Track quality 100.0 %
Copy CRC 1992AB34
Copy OK
Track 3
Filename C:\Temp\FLAC\03. Case Closed.wav
Peak level 96.6 %
Track quality 100.0 %
Copy CRC 2BD5E008
Copy OK
Track 4
Filename C:\Temp\FLAC\04. You Didn't Hear Me.wav
Peak level 96.6 %
Track quality 100.0 %
Copy CRC D947D409
Copy OK
Track 5
Filename C:\Temp\FLAC\05. Interruptions.wav
Peak level 96.6 %
Track quality 100.0 %
Copy CRC FB3F16D1
Copy OK
Track 6
Filename C:\Temp\FLAC\06. Strangers.wav
Peak level 96.6 %
Track quality 100.0 %
Copy CRC 053F77F0
Copy OK
Track 7
Filename C:\Temp\FLAC\07. Nothing Comes For Free.wav
Peak level 96.6 %
Track quality 100.0 %
Copy CRC 004C92C9
Copy OK
Track 8
Filename C:\Temp\FLAC\08. Different Minds.wav
Peak level 96.6 %
Track quality 99.8 %
Copy CRC 2738CAC0
Copy OK
Track 9
Filename C:\Temp\FLAC\09. Reset.wav
Peak level 96.6 %
Track quality 100.0 %
Copy CRC EA4CD624
Copy OK
Track 10
Filename C:\Temp\FLAC\10. Game On.wav
Peak level 96.6 %
Track quality 100.0 %
Copy CRC DCD865E1
Copy OK
Track 11
Filename C:\Temp\FLAC\11. Recondition.wav
Peak level 96.6 %
Track quality 100.0 %
Copy CRC D888C9B1
Copy OK
Track 12
Filename C:\Temp\FLAC\12. Es Geht Vorbei.wav
Peak level 96.6 %
Track quality 100.0 %
Copy CRC B89A0107
Copy OK
No errors occurred
End of status report
REM GENRE Synthpop
REM DATE 2006
REM DISCID A30A6E0C
REM COMMENT "ExactAudioCopy v0.99pb4"
PERFORMER "We."
TITLE "Departure"
FILE "01. Emergency.wav" WAVE
TRACK 01 AUDIO
TITLE "Emergency"
PERFORMER "We."
INDEX 01 00:00:00
TRACK 02 AUDIO
TITLE "Operate"
PERFORMER "We."
INDEX 00 04:29:36
FILE "02. Operate.wav" WAVE
INDEX 01 00:00:00
TRACK 03 AUDIO
TITLE "Case Closed"
PERFORMER "We."
INDEX 00 03:18:29
FILE "03. Case Closed.wav" WAVE
INDEX 01 00:00:00
TRACK 04 AUDIO
TITLE "You Didn't Hear Me"
PERFORMER "We."
INDEX 00 03:29:69
FILE "04. You Didn't Hear Me.wav" WAVE
INDEX 01 00:00:00
TRACK 05 AUDIO
TITLE "Interruptions"
PERFORMER "We."
INDEX 00 03:03:42
FILE "05. Interruptions.wav" WAVE
INDEX 01 00:00:00
TRACK 06 AUDIO
TITLE "Strangers"
PERFORMER "We."
INDEX 00 03:35:05
FILE "06. Strangers.wav" WAVE
INDEX 01 00:00:00
TRACK 07 AUDIO
TITLE "Nothing Comes For Free"
PERFORMER "We."
INDEX 00 03:07:15
FILE "07. Nothing Comes For Free.wav" WAVE
INDEX 01 00:00:00
TRACK 08 AUDIO
TITLE "Different Minds"
PERFORMER "We."
INDEX 00 04:59:23
FILE "08. Different Minds.wav" WAVE
INDEX 01 00:00:00
TRACK 09 AUDIO
TITLE "Reset"
PERFORMER "We."
INDEX 00 03:10:64
FILE "09. Reset.wav" WAVE
INDEX 01 00:00:00
TRACK 10 AUDIO
TITLE "Game On"
PERFORMER "We."
INDEX 00 03:46:05
FILE "10. Game On.wav" WAVE
INDEX 01 00:00:00
TRACK 11 AUDIO
TITLE "Recondition"
PERFORMER "We."
INDEX 00 04:00:42
FILE "11. Recondition.wav" WAVE
INDEX 01 00:00:00
TRACK 12 AUDIO
TITLE "Es Geht Vorbei"
PERFORMER "We."
INDEX 00 03:28:22
FILE "12. Es Geht Vorbei.wav" WAVE
INDEX 01 00:00:00
Правила, инструкции, FAQ!!!
Торрент  Добавлен [26 июн 2020, 20:33] Скачать торрент Магнет ссылка
Скачать торрент
[ Размер 11.45 КБ / Просмотров 6 ]

Статус
Проверен 
 
Размер  264.46 МБ
Приватный: Нет (DHT включён)
.torrent скачан  0
 


     Отправить личное сообщение
   
Страница 1 из 1
Показать сообщения за:  Поле сортировки  
Начать новую тему Ответить на тему


Сейчас этот форум просматривают: нет зарегистрированных пользователей и гости: 0


Вы не можете начинать темы
Вы не можете отвечать на сообщения
Вы не можете редактировать свои сообщения
Вы не можете удалять свои сообщения
Вы не можете добавлять вложения

Перейти:  
cron