Начать новую тему Ответить на тему
Статистика раздачи
Размер: 428.09 МБ | Добавлен: 26 июн 2020, 16:50 | Скачали: 0
Сидеров: 0  [0 байт/сек]    Личеров: 0  [0 байт/сек]
Пред. тема | След. тема 

Автор
Сообщение

СообщениеДобавлено: 26 июн 2020, 16:50 

Ответить с цитатой 

3 Cold Men - Photogramm
Жанр: Electro, Synth-pop
Год выпуска диска: 2008
Производитель диска: Brazil
Аудио кодек: APE
Тип рипа: image+.cue
Битрейт аудио: lossless
Продолжительность: 01:02:21
Трэклист:
01. Red Brain 5:03
02. Babies Are Not My Friends 5:03
03. Portrait Of My Dead Father 5:45
04. I Need To Know 4:52
05. C.Was 4:39
06. Crossing Waters 4:48
07. My Greatest Greta 5:06
08. The Rain On Seattle 5:52
09. Perfect Clone 5:00
10. Crossed 2:42
11. Crossing Waters 5:30
12. The Rain On Seattle Extended 6:08
Код:
Exact Audio Copy V0.99 prebeta 5 from 4. May 2009
Отчёт EAC об извлечении, выполненном 3. ноября 2009, 20:28
3 Cold Men / Photogramm
Дисковод: Optiarc DVD RW AD-7201S   Adapter: 2  ID: 1
Режим чтения                 : Достоверность
Использование точного потока : Да
Отключение кэша аудио        : Да
Использование указателей C2  : Нет
Коррекция смещения при чтении                     : 48
Способность читать области Lead-in и Lead-out     : Нет
Заполнение пропущенных сэмплов тишиной            : Да
Удаление блоков с тишиной в начале и конце        : Нет
При вычислениях CRC использовались нулевые сэмплы : Да
Интерфейс                                         : Встроенный Win32-интерфейс для Win NT/2000
Выходной формат : Внутренние WAV-операции
Формат сэмплов  : 44.100 Гц; 16 бит; стерео
TOC извлечённого CD
     Трек |   Старт  | Длительность | Начальный сектор | Конечный сектор
    ---------------------------------------------------------------------
       1  |  0:00.00 |    5:05.17   |           0      |      22891
       2  |  5:05.17 |    5:05.21   |       22892      |      45787
       3  | 10:10.38 |    5:47.47   |       45788      |      71859
       4  | 15:58.10 |    4:54.23   |       71860      |      93932
       5  | 20:52.33 |    4:41.24   |       93933      |     115031
       6  | 25:33.57 |    4:50.13   |      115032      |     136794
       7  | 30:23.70 |    5:08.29   |      136795      |     159923
       8  | 35:32.24 |    5:54.31   |      159924      |     186504
       9  | 41:26.55 |    5:02.27   |      186505      |     209181
      10  | 46:29.07 |    4:12.34   |      209182      |     228115
      11  | 50:41.41 |    5:32.04   |      228116      |     253019
      12  | 56:13.45 |    6:08.09   |      253020      |     280628
Характеристики диапазона извлечения и сообщения об ошибках
Выбранный диапазон
     Имя файла E:\Раздачи\3 Cold Men - Photogramm\3 Cold Men - Photogramm.wav
     Пиковый уровень 98.8 %
     Качество диапазона 99.9 %
     CRC теста 00FDB5F6
     CRC копии 00FDB5F6
     Копирование... OK
Ошибок не произошло
AccurateRip: сводка
Трек  1  нет в базе данных
Трек  2  нет в базе данных
Трек  3  нет в базе данных
Трек  4  нет в базе данных
Трек  5  нет в базе данных
Трек  6  нет в базе данных
Трек  7  нет в базе данных
Трек  8  нет в базе данных
Трек  9  нет в базе данных
Трек 10  нет в базе данных
Трек 11  нет в базе данных
Трек 12  нет в базе данных
Ни одного трека нет в базе AccurateRip
Конец отчёта
Код:
Started at: вторник, 03. 11. 2009. - 20:34.56
1 file found
1 -===- E:\Раздачи\3 Cold Men - Photogramm\3 Cold Men - Photogramm.ape
  Extracted successfully
  Conclusion: this track is MPEG with probability 95%
  Tempfile successfully deleted.
Finished at: вторник, 03. 11. 2009. - 20:41.07 (operation time: 0:06.11)
Код:
[url=http://s2.directupload.net/file/d/1967/gh87t6wf_jpg.htm][img]http://s2.directupload.net/images/091103/temp/gh87t6wf.jpg[/img][/url] [url=http://s12.directupload.net/file/d/1967/d7iff2mt_jpg.htm][img]http://s12.directupload.net/images/091103/temp/d7iff2mt.jpg[/img][/url] [url=http://s4.directupload.net/file/d/1967/kujptaya_jpg.htm][img]http://s4.directupload.net/images/091103/temp/kujptaya.jpg[/img][/url] [url=http://s8.directupload.net/file/d/1967/w4623aqp_jpg.htm][img]http://s8.directupload.net/images/091103/temp/w4623aqp.jpg[/img][/url] [url=http://s1.directupload.net/file/d/1967/kw9ryfyr_jpg.htm][img]http://s1.directupload.net/images/091103/temp/kw9ryfyr.jpg[/img][/url] [url=http://s2.directupload.net/file/d/1967/sf6etooa_jpg.htm][img]http://s2.directupload.net/images/091103/temp/sf6etooa.jpg[/img][/url] [url=http://s8.directupload.net/file/d/1967/szmp73n3_jpg.htm][img]http://s8.directupload.net/images/091103/temp/szmp73n3.jpg[/img][/url] [url=http://s4.directupload.net/file/d/1967/q4vsthfo_jpg.htm][img]http://s4.directupload.net/images/091103/temp/q4vsthfo.jpg[/img][/url]
[url=http://s2.directupload.net/file/d/1967/ti4ppzg3_jpg.htm][img]http://s2.directupload.net/images/091103/temp/ti4ppzg3.jpg[/img][/url] [url=http://s5.directupload.net/file/d/1967/u9r9ntem_jpg.htm][img]http://s5.directupload.net/images/091103/temp/u9r9ntem.jpg[/img][/url] [url=http://s12.directupload.net/file/d/1967/mprsl75w_jpg.htm][img]http://s12.directupload.net/images/091103/temp/mprsl75w.jpg[/img][/url]
Label:Wave Propaganda
Catalog#:W010
Format:CD, Album
Country:Brazil
Released:2008
Genre:Electronic, Pop
Style:Electro, Synth-pop, Minimal

HQ Scans Full Complete
Правила, инструкции, FAQ!!!
Торрент  Добавлен [26 июн 2020, 16:50] Скачать торрент Магнет ссылка
Скачать торрент
[ Размер 17.56 КБ / Просмотров 3 ]

Статус
Проверен 
 
Размер  428.09 МБ
Приватный: Нет (DHT включён)
.torrent скачан  0
 


     Отправить личное сообщение
   
Страница 1 из 1
Показать сообщения за:  Поле сортировки  
Начать новую тему Ответить на тему


Сейчас этот форум просматривают: нет зарегистрированных пользователей и гости: 0


Вы не можете начинать темы
Вы не можете отвечать на сообщения
Вы не можете редактировать свои сообщения
Вы не можете удалять свои сообщения
Вы не можете добавлять вложения

Перейти:  
cron