Начать новую тему Ответить на тему
Статистика раздачи
Размер: 411.24 МБ | Добавлен: 26 июн 2020, 17:34 | Скачали: 0
Сидеров: 0  [0 байт/сек]    Личеров: 0  [0 байт/сек]
Пред. тема | След. тема 

Автор
Сообщение

СообщениеДобавлено: 26 июн 2020, 17:34 

Ответить с цитатой 

Cleen - Second Path
Жанр: Electro, Synth-pop
Год выпуска диска: 1999
Производитель диска: US
Аудио кодек: FLAC
Тип рипа: tracks+.cue
Битрейт аудио: lossless
Продолжительность: 1:09;56
Трэклист:
1 Sunburst (5:12)
2 Freak (6:21)
3 Cutting The... (4:56)
4 North (5:48)
5 Did You Forget (Special '99 Blackfloor Edit) (5:39)
6 Seperate Live (5:09)
7 Transparent (5:18)
8 Stronger (4:48)
9 Nightflight (5:43)
10 Can't See (7:23)
11 This Autumn (6:00)
12 Restore (5:43)
13 Untitled (1:50)
Доп. информация:
Label: Metropolis
Catalog#: MET 116
Credits: Featuring - Wolfgang Thums; Mastered By - Torben Schmidt; Mixed By - Daniel Myer; Producer - Daniel Myer
Notes: Track 13 is unlisted
Код:
Exact Audio Copy V0.99 prebeta 4 from 23. January 2008
EAC extraction logfile from 16. December 2008, 12:17
Cleen / Second Path
Used drive  : _NEC    DVD_RW ND-3550A   Adapter: 0  ID: 0
Read mode               : Secure
Utilize accurate stream : Yes
Defeat audio cache      : Yes
Make use of C2 pointers : No
Read offset correction                      : 48
Overread into Lead-In and Lead-Out          : No
Fill up missing offset samples with silence : Yes
Delete leading and trailing silent blocks   : No
Null samples used in CRC calculations       : Yes
Used interface                              : Installed external ASPI interface
Gap handling                                : Appended to previous track
Used output format              : User Defined Encoder
Selected bitrate                : 1024 kBit/s
Quality                         : High
Add ID3 tag                     : No
Command line compressor         : D:\Programs\Tools\_Exact Audio Copy\FLAC\FLAC.EXE
Additional command line options : -8 -V -T "ARTIST=%a" -T "TITLE=%t" -T "ALBUM=%g" -T "DATE=%y" -T "TRACKNUMBER=%n" -T "GENRE=%m" -T "COMMENT=%e" %s -o %d
TOC of the extracted CD
     Track |   Start  |  Length  | Start sector | End sector
    ---------------------------------------------------------
        1  |  0:01.00 |  5:12.47 |        75    |    23521
        2  |  5:13.47 |  6:21.45 |     23522    |    52141
        3  | 11:35.17 |  4:56.24 |     52142    |    74365
        4  | 16:31.41 |  5:48.42 |     74366    |   100507
        5  | 22:20.08 |  5:39.73 |    100508    |   126005
        6  | 28:00.06 |  5:09.17 |    126006    |   149197
        7  | 33:09.23 |  5:18.36 |    149198    |   173083
        8  | 38:27.59 |  4:48.23 |    173084    |   194706
        9  | 43:16.07 |  5:43.00 |    194707    |   220431
       10  | 48:59.07 |  7:23.05 |    220432    |   253661
       11  | 56:22.12 |  6:00.55 |    253662    |   280716
       12  | 62:22.67 |  5:43.42 |    280717    |   306483
       13  | 68:06.34 |  1:50.30 |    306484    |   314763
Track  1
     Filename G:\EAC Temporare\01 Sunburst.wav
     Pre-gap length  0:00:03.00
     Peak level 100.0 %
     Track quality 100.0 %
     Test CRC 18E6A3CF
     Copy CRC 18E6A3CF
     Accurately ripped (confidence 6)  [DBFECCC1]
     Copy OK
Track  2
     Filename G:\EAC Temporare\02 Freak.wav
     Pre-gap length  0:00:02.45
     Peak level 100.0 %
     Track quality 100.0 %
     Test CRC 182F74FF
     Copy CRC 182F74FF
     Accurately ripped (confidence 6)  [00B56859]
     Copy OK
Track  3
     Filename G:\EAC Temporare\03 Cutting The....wav
     Pre-gap length  0:00:02.45
     Peak level 100.0 %
     Track quality 100.0 %
     Test CRC DB08F765
     Copy CRC DB08F765
     Accurately ripped (confidence 6)  [875EAF70]
     Copy OK
Track  4
     Filename G:\EAC Temporare\04 North.wav
     Pre-gap length  0:00:02.45
     Peak level 100.0 %
     Track quality 100.0 %
     Test CRC 7BD113B8
     Copy CRC 7BD113B8
     Accurately ripped (confidence 6)  [B90FA80D]
     Copy OK
Track  5
     Filename G:\EAC Temporare\05 Did You Forget (Special '99 Blackfloor Edit).wav
     Pre-gap length  0:00:02.45
     Peak level 100.0 %
     Track quality 100.0 %
     Test CRC E8F8DBEA
     Copy CRC E8F8DBEA
     Accurately ripped (confidence 6)  [6210D712]
     Copy OK
Track  6
     Filename G:\EAC Temporare\06 Seperate Five.wav
     Pre-gap length  0:00:02.45
     Peak level 100.0 %
     Track quality 100.0 %
     Test CRC F83C2CED
     Copy CRC F83C2CED
     Accurately ripped (confidence 6)  [C899B353]
     Copy OK
Track  7
     Filename G:\EAC Temporare\07 Transparent.wav
     Pre-gap length  0:00:02.45
     Peak level 100.0 %
     Track quality 100.0 %
     Test CRC 5BBCFE5D
     Copy CRC 5BBCFE5D
     Accurately ripped (confidence 6)  [9FC664AB]
     Copy OK
Track  8
     Filename G:\EAC Temporare\08 Stronger.wav
     Pre-gap length  0:00:02.45
     Peak level 100.0 %
     Track quality 100.0 %
     Test CRC 104E61C6
     Copy CRC 104E61C6
     Accurately ripped (confidence 6)  [E439B396]
     Copy OK
Track  9
     Filename G:\EAC Temporare\09 Nightflight.wav
     Pre-gap length  0:00:02.45
     Peak level 100.0 %
     Track quality 99.9 %
     Test CRC 77DA43EE
     Copy CRC 77DA43EE
     Accurately ripped (confidence 6)  [59E202A6]
     Copy OK
Track 10
     Filename G:\EAC Temporare\10 Can't See.wav
     Pre-gap length  0:00:02.45
     Peak level 100.0 %
     Track quality 100.0 %
     Test CRC FCF82FAB
     Copy CRC FCF82FAB
     Accurately ripped (confidence 6)  [17F78419]
     Copy OK
Track 11
     Filename G:\EAC Temporare\11 This Autumn.wav
     Pre-gap length  0:00:02.45
     Peak level 100.0 %
     Track quality 100.0 %
     Test CRC 3E617399
     Copy CRC 3E617399
     Accurately ripped (confidence 5)  [A8BB02A2]
     Copy OK
Track 12
     Filename G:\EAC Temporare\12 Restore.wav
     Pre-gap length  0:00:02.45
     Peak level 100.0 %
     Track quality 99.9 %
     Test CRC 8925E1C4
     Copy CRC 8925E1C4
     Accurately ripped (confidence 5)  [2CEF6678]
     Copy OK
Track 13
     Filename G:\EAC Temporare\13 Outro.wav
     Pre-gap length  0:00:02.45
     Peak level 100.0 %
     Track quality 100.0 %
     Test CRC C1ED8498
     Copy CRC C1ED8498
     Accurately ripped (confidence 6)  [84C229EA]
     Copy OK
All tracks accurately ripped
No errors occurred
End of status report

Зарелизено на rutracker.org

на раздаче ВСЕГДА в нерабочее время (вечер, ночь, выходные), в остальное время как получится
Правила, инструкции, FAQ!!!
Торрент  Добавлен [26 июн 2020, 17:34] Скачать торрент Магнет ссылка
Скачать торрент
[ Размер 17.8 КБ / Просмотров 11 ]

Статус
Проверен 
 
Размер  411.24 МБ
Приватный: Нет (DHT включён)
.torrent скачан  0
 


     Отправить личное сообщение
   
Страница 1 из 1
Показать сообщения за:  Поле сортировки  
Начать новую тему Ответить на тему


Сейчас этот форум просматривают: нет зарегистрированных пользователей и гости: 0


Вы не можете начинать темы
Вы не можете отвечать на сообщения
Вы не можете редактировать свои сообщения
Вы не можете удалять свои сообщения
Вы не можете добавлять вложения

Перейти:  
cron