Начать новую тему Ответить на тему
Статистика раздачи
Размер: 453.59 МБ | Добавлен: 26 июн 2020, 16:48 | Скачали: 0
Сидеров: 0  [0 байт/сек]    Личеров: 0  [0 байт/сек]
Пред. тема | След. тема 

Автор
Сообщение

СообщениеДобавлено: 26 июн 2020, 16:48 

Ответить с цитатой 

Aiboforcen - Sons Palliatifs
Жанр: Electro, Synth-pop
Год выпуска диска: 2001
Производитель диска: Belgium
Аудио кодек: FLAC
Тип рипа: image+.cue
Битрейт аудио: lossless
Трэклист:
1 Peep Show (3:36)
2 Twilight World (Icon Of Coil RMX) (8:07)
Remix - Icon Of Coil
3 Freezing Dreams (4:51)
4 Lobotomie Matricielle (3:02)
5 The Shepherd's Deathline (Flesh Field RMX) (4:21)
Remix - Flesh Field
6 Le Sablier (4:19)
7 Plastic SOS (3:52)
8 Blind Propaganda (3:53)
9 A Strange Day (5:05)
10 Twilight World (4:22)
11 In 2 Minds (4:18)
12 The Shepherd's Deathline (Negative Format RMX) (6:43)
Remix - Negative Format
13 Loosing The Loop (3:35)
14 Sons Palliatifs (7:14)
Exact Audio Copy V0.99 prebeta 5 from 4. May 2009
EAC extraction logfile from 1. August 2009, 1:45
Aiboforcen / Sons Palliatifs
Used drive : PIONEER DVD-RW DVR-215D Adapter: 0 ID: 0
Read mode : Secure
Utilize accurate stream : Yes
Defeat audio cache : Yes
Make use of C2 pointers : No
Read offset correction : 48
Overread into Lead-In and Lead-Out : No
Fill up missing offset samples with silence : Yes
Delete leading and trailing silent blocks : No
Null samples used in CRC calculations : Yes
Used interface : Native Win32 interface for Win NT & 2000
Used output format : Internal WAV Routines
Sample format : 44.100 Hz; 16 Bit; Stereo
TOC of the extracted CD
Track | Start | Length | Start sector | End sector
---------------------------------------------------------
1 | 0:00.00 | 3:38.34 | 0 | 16383
2 | 3:38.34 | 8:09.74 | 16384 | 53132
3 | 11:48.33 | 4:53.61 | 53133 | 75168
4 | 16:42.19 | 3:04.12 | 75169 | 88980
5 | 19:46.31 | 4:23.35 | 88981 | 108740
6 | 24:09.66 | 4:21.51 | 108741 | 128366
7 | 28:31.42 | 3:54.54 | 128367 | 145970
8 | 32:26.21 | 3:55.06 | 145971 | 163601
9 | 36:21.27 | 5:07.01 | 163602 | 186627
10 | 41:28.28 | 4:24.32 | 186628 | 206459
11 | 45:52.60 | 4:20.06 | 206460 | 225965
12 | 50:12.66 | 6:45.11 | 225966 | 256351
13 | 56:58.02 | 3:37.29 | 256352 | 272655
14 | 60:35.31 | 7:14.47 | 272656 | 305252
Range status and errors
Selected range
Filename E:\Music\Aiboforcen - Sons Palliatifs\Aiboforcen - Sons Palliatifs.wav
Peak level 96.6 %
Range quality 100.0 %
Test CRC DD7F0ABD
Copy CRC DD7F0ABD
Copy OK
No errors occurred
End of status report
Доп. информация: Sons Palliatifs" - заключительная глава в трилогии, посвященной смерти, и дебютный релиз легендарного бельгийского проекта на собственном лейбле Alfa Matrix. На этом альбоме смерть уже не внушает страха - она лишь подготовка к благополучному приземлению в другом мире. Возможно, именно поэтому на "Sons Palliatifs" группа, оттолкнувшись от мрачной стороны звучания, движется к новым звуковым ландшафтам и свежим, бодрым ритмам, смешивая мелодичный dark/future pop с techno и trip hop, совмещая на одном диске электронно-индустриальные инструменталки и танцевальные боевики. Славящиеся своей тягой к экспериментам и коллаборациям, и на этом альбоме не обошлись без приглашенных талантов: на альбоме вы найдете треки, к которым приложили руку ICON OF COIL, REGENERATOR, FLESH FIELD, NEGATIVE FORMAT, а также саркастическую интерпретацию "A Strange Day" THE CURE.
Правила, инструкции, FAQ!!!
Торрент  Добавлен [26 июн 2020, 16:48] Скачать торрент Магнет ссылка
Скачать торрент
[ Размер 18.3 КБ / Просмотров 25 ]

Статус
Проверен 
 
Размер  453.59 МБ
Приватный: Нет (DHT включён)
.torrent скачан  0
 


     Отправить личное сообщение
   
Страница 1 из 1
Показать сообщения за:  Поле сортировки  
Начать новую тему Ответить на тему


Сейчас этот форум просматривают: нет зарегистрированных пользователей и гости: 0


Вы не можете начинать темы
Вы не можете отвечать на сообщения
Вы не можете редактировать свои сообщения
Вы не можете удалять свои сообщения
Вы не можете добавлять вложения

Перейти:  
cron