Начать новую тему Ответить на тему
Статистика раздачи
Размер: 745.33 МБ | Добавлен: 26 июн 2020, 17:16 | Скачали: 0
Сидеров: 2  [0 байт/сек]    Личеров: 1  [0 байт/сек]
Пред. тема | След. тема 

Автор
Сообщение

СообщениеДобавлено: 26 июн 2020, 17:16 

Ответить с цитатой 

Helalyn Flowers - A Voluntary Coincidence [Limited Edition]
Жанр: electro rock wave
Год выпуска диска: 2007
Производитель диска: (Alfa Matrix, Belgium)
Аудио кодек: FLAC
Тип рипа: image+.cue
Битрейт аудио: lossless
Продолжительность Disc1: 40:00.13
Продолжительность Disc2: 51:09.09
Треклист:
Disc1
01. Eye For A Day [3:02]
02. I'm Human, Defective [3:51]
03. Voices [3:54]
04. A Sweet And Deep Bomb In My Heart [4:03]
05. DGtal Blood [3:34]
06. Alice In My Chamber [3:19]
07. My Girlfriend Insanity [3:07]
08. Unreal [4:03]
09. Silent Conversation [3:49]
10. E-Race Generation [3:17]
11. Tide Line [4:01]
Disc2
01. Teargas (Exclusive) [2:34]
02. Voices (Psy'Aviah rmx) [5:43]
03. Alice In My Chamber (Dawn Of Ashes rmx) [5:48]
04. Voices (Cut.Rate.Box rmx) [4:48]
05. Voices (Latexxx Teens rmx) [3:41]
06. DGTal Blood (Beborn Beton rmx) [5:51]
07. Voices (First Black Pope rmx) [3:56]
08. Alice In My Chamber (Dorntec rmx) [4:26]
09. Voices (Steril rmx by Ewilking) [6:02]
10. E-Race Generation (Interface rmx) [4:20]
11. Voices (Akron rmx) [4:01]
Источник: Физический носитель
Код:
Exact Audio Copy V0.99 prebeta 5 from 4. May 2009
Отчёт EAC об извлечении, выполненном 2. июля 2010, 11:52
Helalyn Flowers / A Voluntary Coincidence
Дисковод: Optiarc DVD RW AD-7173A   Adapter: 0  ID: 0
Режим чтения                 : Достоверность
Использование точного потока : Да
Отключение кэша аудио        : Да
Использование указателей C2  : Нет
Коррекция смещения при чтении                     : 48
Способность читать области Lead-in и Lead-out     : Нет
Заполнение пропущенных сэмплов тишиной            : Да
Удаление блоков с тишиной в начале и конце        : Нет
При вычислениях CRC использовались нулевые сэмплы : Да
Интерфейс                                         : Установленный внешний ASPI-интерфейс
Выходной формат          : Пользовательский кодировщик
Выбранный битрейт        : 1024 kBit/s
Качество                 : Высокий
Добавление ID3-тэга      : Нет
Утилита сжатия           : C:\Program Files\Exact Audio Copy\Flac\flac.exe
Дополнительные параметры : -6 -V -T "ARTIST=%a" -T "TITLE=%t" -T "ALBUM=%g" -T "DATE=%y" -T "TRACKNUMBER=%n" -T "GENRE=%m" -T "COMMENT=%e" %s -o %d
TOC извлечённого CD
     Трек |   Старт  | Длительность | Начальный сектор | Конечный сектор
    ---------------------------------------------------------------------
       1  |  0:00.00 |    3:01.47   |           0      |      13621
       2  |  3:01.47 |    3:51.30   |       13622      |      30976
       3  |  6:53.02 |    3:53.49   |       30977      |      48500
       4  | 10:46.51 |    4:03.10   |       48501      |      66735
       5  | 14:49.61 |    3:34.01   |       66736      |      82786
       6  | 18:23.62 |    3:18.50   |       82787      |      97686
       7  | 21:42.37 |    3:06.72   |       97687      |     111708
       8  | 24:49.34 |    4:03.31   |      111709      |     129964
       9  | 28:52.65 |    3:49.24   |      129965      |     147163
      10  | 32:42.14 |    3:16.57   |      147164      |     161920
      11  | 35:58.71 |    4:01.17   |      161921      |     180012
Характеристики диапазона извлечения и сообщения об ошибках
Выбранный диапазон
     Имя файла H:\СКАЧКА\FLAC\1 TORRENT\Helalyn Flowers - A Voluntary Coincidence.wav
     Пиковый уровень 100.0 %
     Качество диапазона 99.9 %
     CRC теста 73E79815
     CRC копии 73E79815
     Копирование... OK
Ошибок не произошло
AccurateRip: сводка
Трек  1  точность не определена (достоверность 1)  [614382A1], AccurateRip вернул [2531DD89]
Трек  2  точность не определена (достоверность 1)  [43EB9662], AccurateRip вернул [605526BA]
Трек  3  точность не определена (достоверность 1)  [0F46102F], AccurateRip вернул [13D5D551]
Трек  4  точность не определена (достоверность 1)  [0E66AD83], AccurateRip вернул [0E282AEB]
Трек  5  точность не определена (достоверность 1)  [0E697627], AccurateRip вернул [1E17D807]
Трек  6  точность не определена (достоверность 1)  [10669D68], AccurateRip вернул [7AF61FBA]
Трек  7  точность не определена (достоверность 1)  [C1AA2A4F], AccurateRip вернул [F05F8209]
Трек  8  точность не определена (достоверность 1)  [4A2C17BD], AccurateRip вернул [3187CC5D]
Трек  9  точность не определена (достоверность 1)  [EF455C37], AccurateRip вернул [B198F8D7]
Трек 10  точность не определена (достоверность 1)  [E3AF2F6A], AccurateRip вернул [B2519B2A]
Трек 11  точность не определена (достоверность 1)  [FC552FC4], AccurateRip вернул [F440BEA2]
Ни один трек не прошёл проверки на точность
В вашей базе может быть иной вариант штамповки диска
Конец отчёта
Код:
Exact Audio Copy V0.99 prebeta 5 from 4. May 2009
Отчёт EAC об извлечении, выполненном 2. июля 2010, 12:56
Helalyn Flowers / A Voluntary Coincidence
Дисковод: Optiarc DVD RW AD-7173A   Adapter: 0  ID: 0
Режим чтения                 : Достоверность
Использование точного потока : Да
Отключение кэша аудио        : Да
Использование указателей C2  : Нет
Коррекция смещения при чтении                     : 48
Способность читать области Lead-in и Lead-out     : Нет
Заполнение пропущенных сэмплов тишиной            : Да
Удаление блоков с тишиной в начале и конце        : Нет
При вычислениях CRC использовались нулевые сэмплы : Да
Интерфейс                                         : Установленный внешний ASPI-интерфейс
Выходной формат          : Пользовательский кодировщик
Выбранный битрейт        : 1024 kBit/s
Качество                 : Высокий
Добавление ID3-тэга      : Нет
Утилита сжатия           : C:\Program Files\Exact Audio Copy\Flac\flac.exe
Дополнительные параметры : -6 -V -T "ARTIST=%a" -T "TITLE=%t" -T "ALBUM=%g" -T "DATE=%y" -T "TRACKNUMBER=%n" -T "GENRE=%m" -T "COMMENT=%e" %s -o %d
TOC извлечённого CD
     Трек |   Старт  | Длительность | Начальный сектор | Конечный сектор
    ---------------------------------------------------------------------
       1  |  0:00.00 |    2:33.71   |           0      |      11545
       2  |  2:33.71 |    5:42.39   |       11546      |      37234
       3  |  8:16.35 |    5:47.41   |       37235      |      63300
       4  | 14:04.01 |    4:48.05   |       63301      |      84905
       5  | 18:52.06 |    3:40.39   |       84906      |     101444
       6  | 22:32.45 |    5:51.10   |      101445      |     127779
       7  | 28:23.55 |    3:56.18   |      127780      |     145497
       8  | 32:19.73 |    4:26.09   |      145498      |     165456
       9  | 36:46.07 |    6:02.28   |      165457      |     192634
      10  | 42:48.35 |    4:19.62   |      192635      |     212121
      11  | 47:08.22 |    4:00.62   |      212122      |     230183
Характеристики диапазона извлечения и сообщения об ошибках
Выбранный диапазон
     Имя файла H:\СКАЧКА\FLAC\1 TORRENT\Helalyn Flowers 2007-A Voluntary Coincidence\Disc2 510909\Helalyn Flowers - A Voluntary Coincidence.wav
     Пиковый уровень 100.0 %
     Качество диапазона 100.0 %
     CRC теста 670780D3
     CRC копии 670780D3
     Копирование... OK
Ошибок не произошло
AccurateRip: сводка
Трек  1  нет в базе данных
Трек  2  нет в базе данных
Трек  3  нет в базе данных
Трек  4  нет в базе данных
Трек  5  нет в базе данных
Трек  6  нет в базе данных
Трек  7  нет в базе данных
Трек  8  нет в базе данных
Трек  9  нет в базе данных
Трек 10  нет в базе данных
Трек 11  нет в базе данных
Ни одного трека нет в базе AccurateRip
Конец отчёта
Хочешь скачать, но не можешь из-за отсутствия сидов - пиши в личку!
Правила, инструкции, FAQ!!!
Торрент  Добавлен [26 июн 2020, 17:16] Скачать торрент Магнет ссылка
Скачать торрент
[ Размер 16.23 КБ / Просмотров 9 ]

Статус
Проверен 
 
Размер  745.33 МБ
Приватный: Нет (DHT включён)
.torrent скачан  0
 


     Отправить личное сообщение
   
Страница 1 из 1
Показать сообщения за:  Поле сортировки  
Начать новую тему Ответить на тему


Сейчас этот форум просматривают: нет зарегистрированных пользователей и гости: 0


Вы не можете начинать темы
Вы не можете отвечать на сообщения
Вы не можете редактировать свои сообщения
Вы не можете удалять свои сообщения
Вы не можете добавлять вложения

Перейти:  
cron